  0
SECTION
  2
HEADER
  9
$ACADVER
  1
AC1027
  9
$ACADMAINTVER
 70
   106
  9
$DWGCODEPAGE
  3
ANSI_1251
  9
$LASTSAVEDBY
  1
Pavel
  9
$REQUIREDVERSIONS
160
                 0
  9
$INSBASE
 10
0.0
 20
0.0
 30
0.0
  9
$EXTMIN
 10
-105.0
 20
-450.4545792282907
 30
0.0
  9
$EXTMAX
 10
877.8999999999999
 20
202.1905995641279
 30
0.0
  9
$LIMMIN
 10
0.0
 20
0.0
  9
$LIMMAX
 10
420.0
 20
297.0
  9
$ORTHOMODE
 70
     0
  9
$REGENMODE
 70
     1
  9
$FILLMODE
 70
     1
  9
$QTEXTMODE
 70
     0
  9
$MIRRTEXT
 70
     0
  9
$LTSCALE
 40
1.0
  9
$ATTMODE
 70
     1
  9
$TEXTSIZE
 40
7.0
  9
$TRACEWID
 40
1.0
  9
$TEXTSTYLE
  7
Standard
  9
$CLAYER
  8
2 depth
  9
$CELTYPE
  6
Continuous
  9
$CECOLOR
 62
   256
  9
$CELTSCALE
 40
1.0
  9
$DISPSILH
 70
     0
  9
$DIMSCALE
 40
1.0
  9
$DIMASZ
 40
2.5
  9
$DIMEXO
 40
0.625
  9
$DIMDLI
 40
3.75
  9
$DIMRND
 40
0.0
  9
$DIMDLE
 40
0.0
  9
$DIMEXE
 40
1.25
  9
$DIMTP
 40
0.0
  9
$DIMTM
 40
0.0
  9
$DIMTXT
 40
2.5
  9
$DIMCEN
 40
2.5
  9
$DIMTSZ
 40
0.0
  9
$DIMTOL
 70
     0
  9
$DIMLIM
 70
     0
  9
$DIMTIH
 70
     0
  9
$DIMTOH
 70
     0
  9
$DIMSE1
 70
     0
  9
$DIMSE2
 70
     0
  9
$DIMTAD
 70
     1
  9
$DIMZIN
 70
     8
  9
$DIMBLK
  1

  9
$DIMASO
 70
     1
  9
$DIMSHO
 70
     1
  9
$DIMPOST
  1

  9
$DIMAPOST
  1

  9
$DIMALT
 70
     0
  9
$DIMALTD
 70
     3
  9
$DIMALTF
 40
0.03937007874016
  9
$DIMLFAC
 40
1.0
  9
$DIMTOFL
 70
     1
  9
$DIMTVP
 40
0.0
  9
$DIMTIX
 70
     0
  9
$DIMSOXD
 70
     0
  9
$DIMSAH
 70
     0
  9
$DIMBLK1
  1

  9
$DIMBLK2
  1

  9
$DIMSTYLE
  2
ISO-25
  9
$DIMCLRD
 70
     0
  9
$DIMCLRE
 70
     0
  9
$DIMCLRT
 70
     0
  9
$DIMTFAC
 40
1.0
  9
$DIMGAP
 40
0.625
  9
$DIMJUST
 70
     0
  9
$DIMSD1
 70
     0
  9
$DIMSD2
 70
     0
  9
$DIMTOLJ
 70
     0
  9
$DIMTZIN
 70
     8
  9
$DIMALTZ
 70
     0
  9
$DIMALTTZ
 70
     0
  9
$DIMUPT
 70
     0
  9
$DIMDEC
 70
     2
  9
$DIMTDEC
 70
     2
  9
$DIMALTU
 70
     2
  9
$DIMALTTD
 70
     3
  9
$DIMTXSTY
  7
Standard
  9
$DIMAUNIT
 70
     0
  9
$DIMADEC
 70
     0
  9
$DIMALTRND
 40
0.0
  9
$DIMAZIN
 70
     0
  9
$DIMDSEP
 70
    44
  9
$DIMATFIT
 70
     3
  9
$DIMFRAC
 70
     0
  9
$DIMLDRBLK
  1

  9
$DIMLUNIT
 70
     2
  9
$DIMLWD
 70
    -2
  9
$DIMLWE
 70
    -2
  9
$DIMTMOVE
 70
     0
  9
$DIMFXL
 40
1.0
  9
$DIMFXLON
 70
     0
  9
$DIMJOGANG
 40
0.7853981633974483
  9
$DIMTFILL
 70
     0
  9
$DIMTFILLCLR
 70
     0
  9
$DIMARCSYM
 70
     0
  9
$DIMLTYPE
  6

  9
$DIMLTEX1
  6

  9
$DIMLTEX2
  6

  9
$DIMTXTDIRECTION
 70
     0
  9
$LUNITS
 70
     2
  9
$LUPREC
 70
     4
  9
$SKETCHINC
 40
1.0
  9
$FILLETRAD
 40
1.75
  9
$AUNITS
 70
     0
  9
$AUPREC
 70
     0
  9
$MENU
  1
.
  9
$ELEVATION
 40
0.0
  9
$PELEVATION
 40
0.0
  9
$THICKNESS
 40
0.0
  9
$LIMCHECK
 70
     0
  9
$CHAMFERA
 40
0.0
  9
$CHAMFERB
 40
0.0
  9
$CHAMFERC
 40
7.0
  9
$CHAMFERD
 40
0.7853981633974483
  9
$SKPOLY
 70
     0
  9
$TDCREATE
 40
2458537.385446644
  9
$TDUCREATE
 40
2458537.260446644
  9
$TDUPDATE
 40
2459139.673200313
  9
$TDUUPDATE
 40
2459139.548200313
  9
$TDINDWG
 40
3.3388750694
  9
$TDUSRTIMER
 40
3.3388749884
  9
$USRTIMER
 70
     1
  9
$ANGBASE
 50
0.0
  9
$ANGDIR
 70
     0
  9
$PDMODE
 70
     0
  9
$PDSIZE
 40
0.0
  9
$PLINEWID
 40
0.0
  9
$SPLFRAME
 70
     0
  9
$SPLINETYPE
 70
     6
  9
$SPLINESEGS
 70
     8
  9
$HANDSEED
  5
24E5
  9
$SURFTAB1
 70
     6
  9
$SURFTAB2
 70
     6
  9
$SURFTYPE
 70
     6
  9
$SURFU
 70
     6
  9
$SURFV
 70
     6
  9
$UCSBASE
  2

  9
$UCSNAME
  2

  9
$UCSORG
 10
0.0
 20
0.0
 30
0.0
  9
$UCSXDIR
 10
1.0
 20
0.0
 30
0.0
  9
$UCSYDIR
 10
0.0
 20
1.0
 30
0.0
  9
$UCSORTHOREF
  2

  9
$UCSORTHOVIEW
 70
     0
  9
$UCSORGTOP
 10
0.0
 20
0.0
 30
0.0
  9
$UCSORGBOTTOM
 10
0.0
 20
0.0
 30
0.0
  9
$UCSORGLEFT
 10
0.0
 20
0.0
 30
0.0
  9
$UCSORGRIGHT
 10
0.0
 20
0.0
 30
0.0
  9
$UCSORGFRONT
 10
0.0
 20
0.0
 30
0.0
  9
$UCSORGBACK
 10
0.0
 20
0.0
 30
0.0
  9
$PUCSBASE
  2

  9
$PUCSNAME
  2

  9
$PUCSORG
 10
0.0
 20
0.0
 30
0.0
  9
$PUCSXDIR
 10
1.0
 20
0.0
 30
0.0
  9
$PUCSYDIR
 10
0.0
 20
1.0
 30
0.0
  9
$PUCSORTHOREF
  2

  9
$PUCSORTHOVIEW
 70
     0
  9
$PUCSORGTOP
 10
0.0
 20
0.0
 30
0.0
  9
$PUCSORGBOTTOM
 10
0.0
 20
0.0
 30
0.0
  9
$PUCSORGLEFT
 10
0.0
 20
0.0
 30
0.0
  9
$PUCSORGRIGHT
 10
0.0
 20
0.0
 30
0.0
  9
$PUCSORGFRONT
 10
0.0
 20
0.0
 30
0.0
  9
$PUCSORGBACK
 10
0.0
 20
0.0
 30
0.0
  9
$USERI1
 70
     0
  9
$USERI2
 70
     0
  9
$USERI3
 70
     0
  9
$USERI4
 70
     0
  9
$USERI5
 70
     0
  9
$USERR1
 40
0.0
  9
$USERR2
 40
0.0
  9
$USERR3
 40
0.0
  9
$USERR4
 40
0.0
  9
$USERR5
 40
0.0
  9
$WORLDVIEW
 70
     1
  9
$SHADEDGE
 70
     3
  9
$SHADEDIF
 70
    70
  9
$TILEMODE
 70
     1
  9
$MAXACTVP
 70
    64
  9
$PINSBASE
 10
0.0
 20
0.0
 30
0.0
  9
$PLIMCHECK
 70
     0
  9
$PEXTMIN
 10
25.69999999999999
 20
19.5
 30
0.0
  9
$PEXTMAX
 10
231.3
 20
175.5
 30
0.0
  9
$PLIMMIN
 10
-20.0
 20
-7.5
  9
$PLIMMAX
 10
277.0
 20
202.5
  9
$UNITMODE
 70
     0
  9
$VISRETAIN
 70
     1
  9
$PLINEGEN
 70
     0
  9
$PSLTSCALE
 70
     1
  9
$TREEDEPTH
 70
  3020
  9
$CMLSTYLE
  2
Standard
  9
$CMLJUST
 70
     0
  9
$CMLSCALE
 40
20.0
  9
$PROXYGRAPHICS
 70
     1
  9
$MEASUREMENT
 70
     1
  9
$CELWEIGHT
370
    -1
  9
$ENDCAPS
280
     0
  9
$JOINSTYLE
280
     0
  9
$LWDISPLAY
290
     0
  9
$INSUNITS
 70
     4
  9
$HYPERLINKBASE
  1

  9
$STYLESHEET
  1

  9
$XEDIT
290
     1
  9
$CEPSNTYPE
380
     0
  9
$PSTYLEMODE
290
     1
  9
$FINGERPRINTGUID
  2
{155E91A9-A63A-4C65-ABFB-17685F20C66D}
  9
$VERSIONGUID
  2
{21B02F1A-ACBA-4BBE-B9B1-043A6F0E3DC5}
  9
$EXTNAMES
290
     1
  9
$PSVPSCALE
 40
0.0
  9
$OLESTARTUP
290
     0
  9
$SORTENTS
280
   127
  9
$INDEXCTL
280
     0
  9
$HIDETEXT
280
     1
  9
$XCLIPFRAME
280
     2
  9
$HALOGAP
280
     0
  9
$OBSCOLOR
 70
   257
  9
$OBSLTYPE
280
     0
  9
$INTERSECTIONDISPLAY
280
     0
  9
$INTERSECTIONCOLOR
 70
   257
  9
$DIMASSOC
280
     2
  9
$PROJECTNAME
  1

  9
$CAMERADISPLAY
290
     0
  9
$LENSLENGTH
 40
50.0
  9
$CAMERAHEIGHT
 40
0.0
  9
$STEPSPERSEC
 40
2.0
  9
$STEPSIZE
 40
6.0
  9
$3DDWFPREC
 40
2.0
  9
$PSOLWIDTH
 40
5.0
  9
$PSOLHEIGHT
 40
80.0
  9
$LOFTANG1
 40
1.570796326794896
  9
$LOFTANG2
 40
1.570796326794896
  9
$LOFTMAG1
 40
0.0
  9
$LOFTMAG2
 40
0.0
  9
$LOFTPARAM
 70
     7
  9
$LOFTNORMALS
280
     1
  9
$LATITUDE
 40
37.795
  9
$LONGITUDE
 40
-122.394
  9
$NORTHDIRECTION
 40
0.0
  9
$TIMEZONE
 70
 -8000
  9
$LIGHTGLYPHDISPLAY
280
     1
  9
$TILEMODELIGHTSYNCH
280
     1
  9
$CMATERIAL
347
EC
  9
$SOLIDHIST
280
     0
  9
$SHOWHIST
280
     1
  9
$DWFFRAME
280
     2
  9
$DGNFRAME
280
     0
  9
$REALWORLDSCALE
290
     1
  9
$INTERFERECOLOR
 62
     1
  9
$INTERFEREOBJVS
345
F9
  9
$INTERFEREVPVS
346
F6
  9
$CSHADOW
280
     0
  9
$SHADOWPLANELOCATION
 40
0.0
  0
ENDSEC
  0
SECTION
  2
CLASSES
  0
CLASS
  1
ACDBDICTIONARYWDFLT
  2
AcDbDictionaryWithDefault
  3
ObjectDBX Classes
 90
        0
 91
        1
280
     0
281
     0
  0
CLASS
  1
DICTIONARYVAR
  2
AcDbDictionaryVar
  3
ObjectDBX Classes
 90
        0
 91
       15
280
     0
281
     0
  0
CLASS
  1
TABLESTYLE
  2
AcDbTableStyle
  3
ObjectDBX Classes
 90
     4095
 91
        1
280
     0
281
     0
  0
CLASS
  1
MATERIAL
  2
AcDbMaterial
  3
ObjectDBX Classes
 90
     1153
 91
        3
280
     0
281
     0
  0
CLASS
  1
VISUALSTYLE
  2
AcDbVisualStyle
  3
ObjectDBX Classes
 90
     4095
 91
       24
280
     0
281
     0
  0
CLASS
  1
SCALE
  2
AcDbScale
  3
ObjectDBX Classes
 90
     1153
 91
       17
280
     0
281
     0
  0
CLASS
  1
MLEADERSTYLE
  2
AcDbMLeaderStyle
  3
ACDB_MLEADERSTYLE_CLASS
 90
     4095
 91
        2
280
     0
281
     0
  0
CLASS
  1
CELLSTYLEMAP
  2
AcDbCellStyleMap
  3
ObjectDBX Classes
 90
     1152
 91
        1
280
     0
281
     0
  0
CLASS
  1
EXACXREFPANELOBJECT
  2
ExAcXREFPanelObject
  3
EXAC_ESW
 90
     1025
 91
        0
280
     0
281
     0
  0
CLASS
  1
NPOCOLLECTION
  2
AcDbImpNonPersistentObjectsCollection
  3
ObjectDBX Classes
 90
     1153
 91
        0
280
     0
281
     0
  0
CLASS
  1
LAYER_INDEX
  2
AcDbLayerIndex
  3
ObjectDBX Classes
 90
        0
 91
        0
280
     0
281
     0
  0
CLASS
  1
SPATIAL_INDEX
  2
AcDbSpatialIndex
  3
ObjectDBX Classes
 90
        0
 91
        0
280
     0
281
     0
  0
CLASS
  1
IDBUFFER
  2
AcDbIdBuffer
  3
ObjectDBX Classes
 90
        0
 91
        0
280
     0
281
     0
  0
CLASS
  1
ACDBSECTIONVIEWSTYLE
  2
AcDbSectionViewStyle
  3
ObjectDBX Classes
 90
     1025
 91
        1
280
     0
281
     0
  0
CLASS
  1
ACDBDETAILVIEWSTYLE
  2
AcDbDetailViewStyle
  3
ObjectDBX Classes
 90
     1025
 91
        1
280
     0
281
     0
  0
CLASS
  1
SORTENTSTABLE
  2
AcDbSortentsTable
  3
ObjectDBX Classes
 90
        0
 91
        2
280
     0
281
     0
  0
CLASS
  1
DIMASSOC
  2
AcDbDimAssoc
  3
"AcDbDimAssoc|Product Desc:     AcDim ARX App For Dimension|Company:          Autodesk, Inc.|WEB Address:      www.autodesk.com"
 90
        0
 91
        4
280
     0
281
     0
  0
CLASS
  1
MULTILEADER
  2
AcDbMLeader
  3
ACDB_MLEADER_CLASS
 90
     1025
 91
        3
280
     0
281
     1
  0
CLASS
  1
SOLID_BACKGROUND
  2
AcDbSolidBackground
  3
SCENEOE
 90
     4095
 91
        0
280
     0
281
     0
  0
CLASS
  1
ACARRAYJIGENTITY
  2
AcArrayJigEntity
  3
ACAD_ARRAY
 90
      129
 91
        0
280
     0
281
     1
  0
CLASS
  1
ACDBASSOCNETWORK
  2
AcDbAssocNetwork
  3
ObjectDBX Classes
 90
     1025
 91
        0
280
     0
281
     0
  0
CLASS
  1
ACDBASSOCACTION
  2
AcDbAssocAction
  3
ObjectDBX Classes
 90
     1025
 91
        0
280
     0
281
     0
  0
CLASS
  1
ACDBASSOCARRAYACTIONBODY
  2
AcDbAssocArrayActionBody
  3
ObjectDBX Classes
 90
     1025
 91
        0
280
     0
281
     0
  0
CLASS
  1
ACDBASSOCVERTEXACTIONPARAM
  2
AcDbAssocVertexActionParam
  3
ObjectDBX Classes
 90
     1025
 91
        0
280
     0
281
     0
  0
CLASS
  1
ACDBASSOCDEPENDENCY
  2
AcDbAssocDependency
  3
ObjectDBX Classes
 90
     1025
 91
        0
280
     0
281
     0
  0
CLASS
  1
ACDBASSOCARRAYRECTANGULARPARAMETERS
  2
AcDbAssocArrayRectangularParameters
  3
ObjectDBX Classes
 90
     1025
 91
        0
280
     0
281
     0
  0
CLASS
  1
RAPIDRTRENDERSETTINGS
  2
AcDbRapidRTRenderSettings
  3
ObjectDBX Classes
 90
     1024
 91
        6
280
     0
281
     0
  0
CLASS
  1
PLOTSETTINGS
  2
AcDbPlotSettings
  3
ObjectDBX Classes
 90
        0
 91
        1
280
     0
281
     0
  0
ENDSEC
  0
SECTION
  2
TABLES
  0
TABLE
  2
VPORT
  5
8
330
0
100
AcDbSymbolTable
 70
     1
  0
VPORT
  5
EA
330
8
100
AcDbSymbolTableRecord
100
AcDbViewportTableRecord
  2
*Active
 70
     0
 10
0.0
 20
0.0
 11
1.0
 21
1.0
 12
907.1422786764204
 22
-245.7984950645923
 13
0.0
 23
0.0
 14
10.0
 24
10.0
 15
10.0
 25
10.0
 16
0.0
 26
0.0
 36
1.0
 17
0.0
 27
0.0
 37
0.0
 40
534.9929257828789
 41
1.885304659498207
 42
50.0
 43
0.0
 44
0.0
 50
0.0
 51
0.0
 71
     0
 72
  1000
 73
     1
 74
     3
 75
     0
 76
     1
 77
     0
 78
     0
281
     0
 65
     1
110
0.0
120
0.0
130
0.0
111
1.0
121
0.0
131
0.0
112
0.0
122
1.0
132
0.0
 79
     0
146
0.0
348
F5
 60
     3
 61
     5
292
     1
282
     1
141
0.0
142
0.0
 63
   250
421
  3355443
1001
ACAD_NAV_VCDISPLAY
1070
     3
  0
ENDTAB
  0
TABLE
  2
LTYPE
  5
5
330
0
100
AcDbSymbolTable
 70
     7
  0
LTYPE
  5
14
330
5
100
AcDbSymbolTableRecord
100
AcDbLinetypeTableRecord
  2
ByBlock
 70
     0
  3

 72
    65
 73
     0
 40
0.0
  0
LTYPE
  5
15
330
5
100
AcDbSymbolTableRecord
100
AcDbLinetypeTableRecord
  2
ByLayer
 70
     0
  3

 72
    65
 73
     0
 40
0.0
  0
LTYPE
  5
16
330
5
100
AcDbSymbolTableRecord
100
AcDbLinetypeTableRecord
  2
Continuous
 70
     0
  3
Solid line
 72
    65
 73
     0
 40
0.0
  0
LTYPE
  5
AA8
330
5
100
AcDbSymbolTableRecord
100
AcDbLinetypeTableRecord
  2
ACAD_ISO04W100
 70
     0
  3
ISO ш/пункт. (дл. штрихи) ____ . ____ . ____ . 
 72
    65
 73
     4
 40
30.0
 49
24.0
 74
     0
 49
-3.0
 74
     0
 49
0.0
 74
     0
 49
-3.0
 74
     0
  0
LTYPE
  5
1B31
330
5
100
AcDbSymbolTableRecord
100
AcDbLinetypeTableRecord
  2
ACAD_ISO05W100
 70
     0
  3
ISO ш/пункт. (дл. штрихи, 2 точки) ____ .. ____
 72
    65
 73
     6
 40
33.0
 49
24.0
 74
     0
 49
-3.0
 74
     0
 49
0.0
 74
     0
 49
-3.0
 74
     0
 49
0.0
 74
     0
 49
-3.0
 74
     0
  0
LTYPE
  5
1B32
330
5
100
AcDbSymbolTableRecord
100
AcDbLinetypeTableRecord
  2
JIS_09_08
 70
     0
  3
2SASEN8 __ _ _ __ _ _ __ _ _ __ _ _ __ _ _
 72
    65
 73
     6
 40
10.75
 49
8.0
 74
     0
 49
-0.55
 74
     0
 49
0.55
 74
     0
 49
-0.55
 74
     0
 49
0.55
 74
     0
 49
-0.55
 74
     0
  0
LTYPE
  5
1B36
330
5
100
AcDbSymbolTableRecord
100
AcDbLinetypeTableRecord
  2
JIS_08_11
 70
     0
  3
1SASEN11 ___ _ ___ _ ___ _ ___ _ ___ _ ___
 72
    65
 73
     4
 40
12.8
 49
11.0
 74
     0
 49
-0.6
 74
     0
 49
0.6
 74
     0
 49
-0.6
 74
     0
  0
ENDTAB
  0
TABLE
  2
LAYER
  5
2
102
{ACAD_XDICTIONARY
360
1FF
102
}
330
0
100
AcDbSymbolTable
 70
     6
  0
LAYER
  5
10
102
{ACAD_XDICTIONARY
360
13C
102
}
330
2
100
AcDbSymbolTableRecord
100
AcDbLayerTableRecord
  2
0
 70
     0
 62
     7
  6
Continuous
370
    -3
390
F
347
EE
348
0
  0
LAYER
  5
2BA
330
2
100
AcDbSymbolTableRecord
100
AcDbLayerTableRecord
  2
Note
 70
     0
 62
   140
  6
Continuous
370
    -3
390
F
347
EE
348
0
1001
AcAecLayerStandard
1000

1000

1001
AcCmTransparency
1071
        0
  0
LAYER
  5
2BF
330
2
100
AcDbSymbolTableRecord
100
AcDbLayerTableRecord
  2
Defpoints
 70
     0
 62
     7
  6
Continuous
290
     0
370
    -3
390
F
347
EE
348
0
  0
LAYER
  5
AA5
330
2
100
AcDbSymbolTableRecord
100
AcDbLayerTableRecord
  2
Note1
 70
     0
 62
   140
  6
ACAD_ISO04W100
370
    -3
390
F
347
EE
348
0
1001
AcAecLayerStandard
1000

1000

1001
AcCmTransparency
1071
        0
  0
LAYER
  5
1832
330
2
100
AcDbSymbolTableRecord
100
AcDbLayerTableRecord
  2
2 depth
 70
     0
 62
   240
  6
Continuous
370
    -3
390
F
347
EE
348
0
1001
AcAecLayerStandard
1000

1000

1001
AcCmTransparency
1071
        0
  0
LAYER
  5
1A31
330
2
100
AcDbSymbolTableRecord
100
AcDbLayerTableRecord
  2
4 depth
 70
     0
 62
    80
  6
Continuous
370
    -3
390
F
347
EE
348
0
1001
AcAecLayerStandard
1000

1000

1001
AcCmTransparency
1071
        0
  0
ENDTAB
  0
TABLE
  2
STYLE
  5
3
330
0
100
AcDbSymbolTable
 70
     3
  0
STYLE
  5
11
330
3
100
AcDbSymbolTableRecord
100
AcDbTextStyleTableRecord
  2
Standard
 70
     0
 40
7.0
 41
1.0
 50
15.0
 71
     0
 42
7.0
  3
GOST Type AU.TTF
  4

1001
ACAD
1000
GOST Type AU
1071
        2
  0
STYLE
  5
132
330
3
100
AcDbSymbolTableRecord
100
AcDbTextStyleTableRecord
  2
Аннотативный
 70
     0
 40
0.0
 41
1.0
 50
0.0
 71
     0
 42
2.5
  3
arial.ttf
  4

1001
AcadAnnotative
1000
AnnotativeData
1002
{
1070
     1
1070
     1
1002
}
1001
ACAD
1000
Arial
1071
       34
  0
STYLE
  5
AA7
330
3
100
AcDbSymbolTableRecord
100
AcDbTextStyleTableRecord
  2

 70
     1
 40
0.0
 41
1.0
 50
0.0
 71
     0
 42
2.5
  3
ltypeshp.shx
  4

  0
ENDTAB
  0
TABLE
  2
VIEW
  5
6
330
0
100
AcDbSymbolTable
 70
     1
  0
ENDTAB
  0
TABLE
  2
UCS
  5
7
330
0
100
AcDbSymbolTable
 70
     0
  0
ENDTAB
  0
TABLE
  2
APPID
  5
9
330
0
100
AcDbSymbolTable
 70
    15
  0
APPID
  5
12
330
9
100
AcDbSymbolTableRecord
100
AcDbRegAppTableRecord
  2
ACAD
 70
     0
  0
APPID
  5
9E
330
9
100
AcDbSymbolTableRecord
100
AcDbRegAppTableRecord
  2
ACAD_PSEXT
 70
     0
  0
APPID
  5
133
330
9
100
AcDbSymbolTableRecord
100
AcDbRegAppTableRecord
  2
AcadAnnoPO
 70
     0
  0
APPID
  5
134
330
9
100
AcDbSymbolTableRecord
100
AcDbRegAppTableRecord
  2
AcadAnnotative
 70
     0
  0
APPID
  5
135
330
9
100
AcDbSymbolTableRecord
100
AcDbRegAppTableRecord
  2
ACAD_DSTYLE_DIMJAG
 70
     0
  0
APPID
  5
136
330
9
100
AcDbSymbolTableRecord
100
AcDbRegAppTableRecord
  2
ACAD_DSTYLE_DIMTALN
 70
     0
  0
APPID
  5
165
330
9
100
AcDbSymbolTableRecord
100
AcDbRegAppTableRecord
  2
ACAD_MLEADERVER
 70
     0
  0
APPID
  5
217
330
9
100
AcDbSymbolTableRecord
100
AcDbRegAppTableRecord
  2
ACAD_NAV_VCDISPLAY
 70
     0
  0
APPID
  5
266
330
9
100
AcDbSymbolTableRecord
100
AcDbRegAppTableRecord
  2
ACAD_EXEMPT_FROM_CAD_STANDARDS
 70
     0
  0
APPID
  5
2BB
330
9
100
AcDbSymbolTableRecord
100
AcDbRegAppTableRecord
  2
AcAecLayerStandard
 70
     0
  0
APPID
  5
2BC
330
9
100
AcDbSymbolTableRecord
100
AcDbRegAppTableRecord
  2
AcCmTransparency
 70
     0
  0
APPID
  5
A72
330
9
100
AcDbSymbolTableRecord
100
AcDbRegAppTableRecord
  2
ACAD_DSTYLE_DIMRADIAL_EXTENSION
 70
     0
  0
APPID
  5
20D0
330
9
100
AcDbSymbolTableRecord
100
AcDbRegAppTableRecord
  2
AcadAnnoMonitorAlertIconDisabled
 70
     0
  0
APPID
  5
23F5
330
9
100
AcDbSymbolTableRecord
100
AcDbRegAppTableRecord
  2
GradientColor1ACI
 70
     0
  0
APPID
  5
23F6
330
9
100
AcDbSymbolTableRecord
100
AcDbRegAppTableRecord
  2
GradientColor2ACI
 70
     0
  0
ENDTAB
  0
TABLE
  2
DIMSTYLE
  5
A
330
0
100
AcDbSymbolTable
 70
     4
100
AcDbDimStyleTable
 71
     2
340
27
340
137
  0
DIMSTYLE
105
1B0
330
A
100
AcDbSymbolTableRecord
100
AcDbDimStyleTableRecord
  2
Standard
 70
     0
340
11
  0
DIMSTYLE
105
137
330
A
100
AcDbSymbolTableRecord
100
AcDbDimStyleTableRecord
  2
Аннотативный
 70
     0
 40
0.0
 41
2.5
 42
0.625
 43
3.75
 44
1.25
 73
     0
 74
     0
 77
     1
 78
     8
140
2.5
141
2.5
143
0.03937007874016
147
0.625
171
     3
172
     1
271
     2
272
     2
274
     3
278
    44
283
     0
284
     8
340
11
1001
AcadAnnotative
1000
AnnotativeData
1002
{
1070
     1
1070
     1
1002
}
1001
ACAD_DSTYLE_DIMJAG
1070
   388
1040
1.5
1001
ACAD_DSTYLE_DIMTALN
1070
   392
1070
     0
  0
DIMSTYLE
105
27
102
{ACAD_REACTORS
330
203D
330
2350
102
}
330
A
100
AcDbSymbolTableRecord
100
AcDbDimStyleTableRecord
  2
ISO-25
 70
     0
 41
2.5
 42
0.625
 43
3.75
 44
1.25
 73
     0
 74
     0
 77
     1
 78
     8
140
2.5
141
2.5
143
0.03937007874016
147
0.625
171
     3
172
     1
271
     2
272
     2
274
     3
278
    44
283
     0
284
     8
340
11
  0
ENDTAB
  0
TABLE
  2
BLOCK_RECORD
  5
1
330
0
100
AcDbSymbolTable
 70
     7
  0
BLOCK_RECORD
  5
1F
102
{ACAD_XDICTIONARY
360
1CE
102
}
330
1
100
AcDbSymbolTableRecord
100
AcDbBlockTableRecord
  2
*Model_Space
340
22
 70
     0
280
     1
281
     0
  0
BLOCK_RECORD
  5
D6
330
1
100
AcDbSymbolTableRecord
100
AcDbBlockTableRecord
  2
*Paper_Space
340
D7
 70
     0
280
     1
281
     0
  0
BLOCK_RECORD
  5
D2
330
1
100
AcDbSymbolTableRecord
100
AcDbBlockTableRecord
  2
*Paper_Space0
340
D3
 70
     0
280
     1
281
     0
  0
BLOCK_RECORD
  5
443
330
1
100
AcDbSymbolTableRecord
100
AcDbBlockTableRecord
  2
_DotSmall
340
0
 70
     0
280
     1
281
     0
  0
BLOCK_RECORD
  5
187D
102
{ACAD_XDICTIONARY
360
1882
102
}
330
1
100
AcDbSymbolTableRecord
100
AcDbBlockTableRecord
  2
A$C553C2C81
340
0
 70
     4
280
     1
281
     0
  0
BLOCK_RECORD
  5
1C71
330
1
100
AcDbSymbolTableRecord
100
AcDbBlockTableRecord
  2
_None
340
0
 70
     0
280
     1
281
     0
  0
BLOCK_RECORD
  5
203E
330
1
100
AcDbSymbolTableRecord
100
AcDbBlockTableRecord
  2
*D5
340
0
 70
     0
280
     1
281
     0
  0
BLOCK_RECORD
  5
2351
330
1
100
AcDbSymbolTableRecord
100
AcDbBlockTableRecord
  2
*D6
340
0
 70
     0
280
     1
281
     0
  0
ENDTAB
  0
ENDSEC
  0
SECTION
  2
BLOCKS
  0
BLOCK
  5
20
330
1F
100
AcDbEntity
  8
0
100
AcDbBlockBegin
  2
*Model_Space
 70
     0
 10
0.0
 20
0.0
 30
0.0
  3
*Model_Space
  1

  0
ENDBLK
  5
21
330
1F
100
AcDbEntity
  8
0
100
AcDbBlockEnd
  0
BLOCK
  5
D8
330
D6
100
AcDbEntity
 67
     1
  8
0
100
AcDbBlockBegin
  2
*Paper_Space
 70
     0
 10
0.0
 20
0.0
 30
0.0
  3
*Paper_Space
  1

  0
ENDBLK
  5
D9
330
D6
100
AcDbEntity
 67
     1
  8
0
100
AcDbBlockEnd
  0
BLOCK
  5
D4
330
D2
100
AcDbEntity
 67
     1
  8
0
100
AcDbBlockBegin
  2
*Paper_Space0
 70
     0
 10
0.0
 20
0.0
 30
0.0
  3
*Paper_Space0
  1

  0
VIEWPORT
  5
1A95
102
{ACAD_XDICTIONARY
360
1A96
102
}
330
D2
100
AcDbEntity
 67
     1
  8
0
100
AcDbViewport
 10
120.5185962192225
 20
83.58539096420654
 30
0.0
 40
257.6322804313921
 41
139.0377996737495
 68
     0
 69
     0
 12
120.5185962192225
 22
83.58539096420654
 13
0.0
 23
0.0
 14
10.0
 24
10.0
 15
10.0
 25
10.0
 16
0.0
 26
0.0
 36
1.0
 17
0.0
 27
0.0
 37
0.0
 42
50.0
 43
0.0
 44
0.0
 45
139.0377996737495
 50
0.0
 51
0.0
 72
  1000
 90
   819232
  1

281
     0
 71
     1
 74
     0
110
0.0
120
0.0
130
0.0
111
1.0
121
0.0
131
0.0
112
0.0
122
1.0
132
0.0
 79
     0
146
0.0
170
     0
 61
     5
348
F5
292
     1
282
     1
141
0.0
142
0.0
 63
   250
421
  3355443
  0
VIEWPORT
  5
1A99
102
{ACAD_XDICTIONARY
360
1A9A
102
}
330
D2
100
AcDbEntity
 67
     1
  8
2 depth
100
AcDbViewport
 10
128.5
 20
97.5
 30
0.0
 40
205.6
 41
156.0
 68
     0
 69
     0
 12
60.0
 22
19.5
 13
0.0
 23
0.0
 14
10.0
 24
10.0
 15
10.0
 25
10.0
 16
0.0
 26
0.0
 36
1.0
 17
0.0
 27
0.0
 37
0.0
 42
50.0
 43
0.0
 44
0.0
 45
91.54408275600266
 50
0.0
 51
0.0
 72
  1000
 90
   819808
  1

281
     0
 71
     1
 74
     0
110
0.0
120
0.0
130
0.0
111
1.0
121
0.0
131
0.0
112
0.0
122
1.0
132
0.0
 79
     0
146
0.0
170
     0
 61
     5
348
F5
292
     1
282
     1
141
0.0
142
0.0
 63
   250
421
  3355443
  0
ENDBLK
  5
D5
330
D2
100
AcDbEntity
 67
     1
  8
0
100
AcDbBlockEnd
  0
BLOCK
  5
445
330
443
100
AcDbEntity
  8
0
100
AcDbBlockBegin
  2
_DotSmall
 70
     0
 10
0.0
 20
0.0
 30
0.0
  3
_DotSmall
  1

  0
LWPOLYLINE
  5
444
330
443
100
AcDbEntity
  8
0
  6
ByBlock
 62
     0
100
AcDbPolyline
 90
        2
 70
     1
 43
0.5
 10
-0.0625
 20
0.0
 42
1.0
 10
0.0625
 20
0.0
 42
1.0
  0
ENDBLK
  5
446
330
443
100
AcDbEntity
  8
0
100
AcDbBlockEnd
  0
BLOCK
  5
1884
330
187D
100
AcDbEntity
  8
0
100
AcDbBlockBegin
  2
A$C553C2C81
 70
     0
 10
0.0
 20
0.0
 30
0.0
  3
A$C553C2C81
  1

  0
LINE
  5
187E
330
187D
100
AcDbEntity
  8
0
100
AcDbLine
 10
-0.0000018214013835
 20
-0.0000000159352567
 30
0.0
 11
179.9999981785986
 21
-0.0000000159352567
 31
0.0
  0
LINE
  5
187F
330
187D
100
AcDbEntity
  8
0
100
AcDbLine
 10
179.9999981785986
 20
-0.0000000159352567
 30
0.0
 11
179.9999981785986
 21
379.9999999840647
 31
0.0
  0
LINE
  5
1880
330
187D
100
AcDbEntity
  8
0
100
AcDbLine
 10
179.9999981785986
 20
379.9999999840647
 30
0.0
 11
-0.0000018214013267
 21
379.9999999840648
 31
0.0
  0
LINE
  5
1881
330
187D
100
AcDbEntity
  8
0
100
AcDbLine
 10
-0.0000018214013267
 20
379.9999999840648
 30
0.0
 11
-0.0000018214013835
 21
-0.0000000159352567
 31
0.0
  0
ENDBLK
  5
1885
330
187D
100
AcDbEntity
  8
0
100
AcDbBlockEnd
  0
BLOCK
  5
1C72
330
1C71
100
AcDbEntity
  8
0
100
AcDbBlockBegin
  2
_None
 70
     0
 10
0.0
 20
0.0
 30
0.0
  3
_None
  1

  0
ENDBLK
  5
1C73
330
1C71
100
AcDbEntity
  8
0
100
AcDbBlockEnd
  0
BLOCK
  5
203F
330
203E
100
AcDbEntity
  8
0
100
AcDbBlockBegin
  2
*D5
 70
     1
 10
0.0
 20
0.0
 30
0.0
  3
*D5
  1

  0
LINE
  5
2349
330
203E
100
AcDbEntity
  8
Note
  6
Continuous
 62
     0
440
 16777216
370
    -2
100
AcDbLine
 10
244.7107962748248
 20
-3.812961757398795
 30
0.0
 11
297.4835289080297
 21
32.86129184609375
 31
0.0
  0
MTEXT
  5
234A
330
203E
100
AcDbEntity
  8
Note
  6
Continuous
 62
     0
440
 16777216
100
AcDbMText
 10
266.798104825074
 20
17.2057046178721
 30
0.0
 40
7.0
 41
0.0
 46
0.0
 71
     5
 72
     1
  1
R1,5, 90%%d 2 гиба
 11
0.8211765621763936
 21
0.5706742098011434
 31
0.0
 73
     1
 44
1.0
  0
LINE
  5
234B
330
203E
100
AcDbEntity
  8
Note
  6
Continuous
 62
     0
440
 16777216
370
    -2
100
AcDbLine
 10
301.9999999999996
 20
35.99999999999984
 30
0.0
 11
300.7682351567353
 21
35.14398868529834
 31
0.0
  0
SOLID
  5
234C
330
203E
100
AcDbEntity
  8
Note
  6
Continuous
 62
     0
440
 16777216
100
AcDbTrace
 10
297.103079434829
 20
33.40874288754468
 30
0.0
 11
297.8639783812305
 21
32.31384080464284
 31
0.0
 12
300.7682351567353
 22
35.14398868529834
 32
0.0
 13
300.7682351567353
 23
35.14398868529834
 33
0.0
  0
ARC
  5
234D
330
203E
100
AcDbEntity
  8
Note
  6
Continuous
 62
     0
440
 16777216
370
    -2
100
AcDbCircle
 10
301.9999999999996
 20
35.99999999999984
 30
0.0
 40
1.499999999999658
100
AcDbArc
 50
113.8732414637897
 51
262.5437367725331
  0
POINT
  5
234E
330
203E
100
AcDbEntity
  8
Defpoints
  6
Continuous
 62
     0
440
 16777216
100
AcDbPoint
 10
300.7682351567353
 20
35.14398868529834
 30
0.0
  0
POINT
  5
234F
330
203E
100
AcDbEntity
  8
Defpoints
  6
Continuous
 62
     0
440
 16777216
100
AcDbPoint
 10
301.9999999999996
 20
35.99999999999984
 30
0.0
  0
ENDBLK
  5
2040
330
203E
100
AcDbEntity
  8
0
100
AcDbBlockEnd
  0
BLOCK
  5
2352
330
2351
100
AcDbEntity
  8
0
100
AcDbBlockBegin
  2
*D6
 70
     1
 10
0.0
 20
0.0
 30
0.0
  3
*D6
  1

  0
LINE
  5
23AD
330
2351
100
AcDbEntity
  8
Note
  6
Continuous
 62
     0
440
 16777216
370
    -2
100
AcDbLine
 10
839.9569087460887
 20
70.67950605656585
 30
0.0
 11
660.6841887160556
 21
3.748821338036975
 31
0.0
  0
MTEXT
  5
23AE
330
2351
100
AcDbEntity
  8
Note
  6
Continuous
 62
     0
440
 16777216
100
AcDbMText
 10
758.7054580469241
 20
45.82126785648966
 30
0.0
 40
7.0
 41
0.0
 46
0.0
 71
     5
 72
     1
  1
R1, 90%%d 6 гибов без повреждения поверхности
 11
0.9368377432112097
 21
0.3497642676073813
 31
0.0
 73
     1
 44
1.0
  0
LINE
  5
23AF
330
2351
100
AcDbEntity
  8
Note
  6
Continuous
 62
     0
440
 16777216
370
    -2
100
AcDbLine
 10
655.9999999999986
 20
1.999999999999658
 30
0.0
 11
656.9368377432108
 21
2.34976426760744
 31
0.0
  0
SOLID
  5
23B0
330
2351
100
AcDbEntity
  8
Note
  6
Continuous
 62
     0
440
 16777216
100
AcDbTrace
 10
660.4510125376507
 20
4.373379833511108
 30
0.0
 11
660.9173648944605
 21
3.124262842562842
 31
0.0
 12
656.9368377432108
 22
2.34976426760744
 32
0.0
 13
656.9368377432108
 23
2.34976426760744
 33
0.0
  0
ARC
  5
23B1
330
2351
100
AcDbEntity
  8
Note
  6
Continuous
 62
     0
440
 16777216
370
    -2
100
AcDbCircle
 10
655.9999999999986
 20
1.999999999999658
 30
0.0
 40
1.000000000001136
100
AcDbArc
 50
305.8098621956357
 51
92.0926217416463
  0
POINT
  5
23B2
330
2351
100
AcDbEntity
  8
Defpoints
  6
Continuous
 62
     0
440
 16777216
100
AcDbPoint
 10
656.9368377432108
 20
2.34976426760744
 30
0.0
  0
POINT
  5
23B3
330
2351
100
AcDbEntity
  8
Defpoints
  6
Continuous
 62
     0
440
 16777216
100
AcDbPoint
 10
655.9999999999986
 20
1.999999999999658
 30
0.0
  0
ENDBLK
  5
2353
330
2351
100
AcDbEntity
  8
0
100
AcDbBlockEnd
  0
ENDSEC
  0
SECTION
  2
ENTITIES
  0
LINE
  5
1DE6
330
1F
100
AcDbEntity
  8
0
  6
Continuous
370
    50
100
AcDbLine
 10
2.999999999999999
 20
0.0
 30
0.0
 11
122.0
 21
0.0
 31
0.0
  0
LINE
  5
1DE7
330
1F
100
AcDbEntity
  8
0
  6
Continuous
370
    50
100
AcDbLine
 10
125.0
 20
2.999999999999999
 30
0.0
 11
125.0
 21
39.0
 31
0.0
  0
LINE
  5
1DE8
330
1F
100
AcDbEntity
  8
0
  6
Continuous
370
    50
100
AcDbLine
 10
125.0
 20
39.0
 30
0.0
 11
-0.0000000000000142
 21
39.0
 31
0.0
  0
LINE
  5
1DE9
330
1F
100
AcDbEntity
  8
0
  6
Continuous
370
    50
100
AcDbLine
 10
-0.0000000000000142
 20
39.0
 30
0.0
 11
-0.0000000000000011
 21
3.0
 31
0.0
  0
ARC
  5
1DEA
330
1F
100
AcDbEntity
  8
0
  6
Continuous
370
    50
100
AcDbCircle
 10
122.0
 20
2.999999999999999
 30
0.0
 40
3.0
100
AcDbArc
 50
270.0
 51
0.0
  0
ARC
  5
1DEB
330
1F
100
AcDbEntity
  8
0
  6
Continuous
370
    50
100
AcDbCircle
 10
2.999999999999999
 20
2.999999999999999
 30
0.0
 40
3.0
100
AcDbArc
 50
180.0
 51
270.0
  0
LINE
  5
1DEC
330
1F
100
AcDbEntity
  8
0
  6
Continuous
370
    50
100
AcDbLine
 10
125.0
 20
59.0
 30
0.0
 11
-0.0000000000000142
 21
59.0
 31
0.0
  0
LINE
  5
1DED
330
1F
100
AcDbEntity
  8
0
  6
Continuous
370
    50
100
AcDbLine
 10
125.0
 20
60.5
 30
0.0
 11
-0.0000000000000142
 21
60.5
 31
0.0
  0
LINE
  5
1DEE
330
1F
100
AcDbEntity
  8
0
  6
Continuous
370
    50
100
AcDbLine
 10
125.0
 20
127.5
 30
0.0
 11
-0.0000000000000142
 21
127.5
 31
0.0
  0
LINE
  5
1DEF
330
1F
100
AcDbEntity
  8
0
  6
Continuous
370
    50
100
AcDbLine
 10
125.0
 20
129.0
 30
0.0
 11
-0.0000000000000142
 21
129.0
 31
0.0
  0
LINE
  5
1DF0
330
1F
100
AcDbEntity
  8
0
  6
Continuous
370
    50
100
AcDbLine
 10
-0.0000000000000142
 20
129.0
 30
0.0
 11
-0.0000000000000142
 21
59.0
 31
0.0
  0
LINE
  5
1DF1
330
1F
100
AcDbEntity
  8
0
  6
Continuous
370
    50
100
AcDbLine
 10
125.0
 20
129.0
 30
0.0
 11
125.0
 21
59.0
 31
0.0
  0
LINE
  5
1DF2
330
1F
100
AcDbEntity
  8
0
  6
Continuous
370
    50
100
AcDbLine
 10
3.999999999999984
 20
127.2
 30
0.0
 11
3.999999999999985
 21
60.79999999999999
 31
0.0
  0
LINE
  5
1DF3
330
1F
100
AcDbEntity
  8
0
  6
Continuous
370
    50
100
AcDbLine
 10
121.0
 20
127.2
 30
0.0
 11
121.0
 21
60.8
 31
0.0
  0
LINE
  5
1DF7
330
1F
100
AcDbEntity
  8
0
  6
Continuous
370
    50
100
AcDbLine
 10
3.000000000000013
 20
-110.0
 30
0.0
 11
122.0
 21
-110.0
 31
0.0
  0
ARC
  5
1DF8
330
1F
100
AcDbEntity
  8
0
  6
Continuous
370
    50
100
AcDbCircle
 10
3.000000000000013
 20
-113.0
 30
0.0
 40
3.0
100
AcDbArc
 50
90.00000000000003
 51
180.0
  0
ARC
  5
1DF9
330
1F
100
AcDbEntity
  8
0
  6
Continuous
370
    50
100
AcDbCircle
 10
122.0
 20
-113.0
 30
0.0
 40
3.0
100
AcDbArc
 50
0.0
 51
90.00000000000003
  0
LINE
  5
1DFA
330
1F
100
AcDbEntity
  8
0
  6
Continuous
370
    50
100
AcDbLine
 10
125.0
 20
-113.0
 30
0.0
 11
125.0
 21
-149.0
 31
0.0
  0
LINE
  5
1DFB
330
1F
100
AcDbEntity
  8
0
  6
Continuous
370
    50
100
AcDbLine
 10
125.0
 20
-149.0
 30
0.0
 11
0.0
 21
-149.0
 31
0.0
  0
LINE
  5
1DFC
330
1F
100
AcDbEntity
  8
0
  6
Continuous
370
    50
100
AcDbLine
 10
0.0
 20
-149.0
 30
0.0
 11
0.0000000000000131
 21
-113.0
 31
0.0
  0
LINE
  5
1DFF
330
1F
100
AcDbEntity
  8
0
  6
Continuous
370
    50
100
AcDbLine
 10
125.0
 20
-20.0
 30
0.0
 11
0.0
 21
-20.0
 31
0.0
  0
LINE
  5
1E02
330
1F
100
AcDbEntity
  8
0
  6
Continuous
370
    50
100
AcDbLine
 10
125.0
 20
-90.0
 30
0.0
 11
0.0
 21
-90.0
 31
0.0
  0
LINE
  5
1E03
330
1F
100
AcDbEntity
  8
0
  6
Continuous
370
    50
100
AcDbLine
 10
0.0
 20
-90.0
 30
0.0
 11
0.0
 21
-20.0
 31
0.0
  0
LINE
  5
1E04
330
1F
100
AcDbEntity
  8
0
  6
Continuous
370
    50
100
AcDbLine
 10
125.0
 20
-90.0
 30
0.0
 11
125.0
 21
-20.0
 31
0.0
  0
LINE
  5
1E12
330
1F
100
AcDbEntity
  8
0
  6
Continuous
370
    50
100
AcDbLine
 10
145.0
 20
36.0
 30
0.0
 11
145.0
 21
0.0
 31
0.0
  0
ARC
  5
1E13
330
1F
100
AcDbEntity
  8
0
  6
Continuous
370
    50
100
AcDbCircle
 10
148.0
 20
36.0
 30
0.0
 40
3.0
100
AcDbArc
 50
90.0
 51
180.0
  0
LINE
  5
1E14
330
1F
100
AcDbEntity
  8
0
  6
Continuous
370
    50
100
AcDbLine
 10
215.0
 20
36.0
 30
0.0
 11
215.0
 21
0.0
 31
0.0
  0
ARC
  5
1E15
330
1F
100
AcDbEntity
  8
0
  6
Continuous
370
    50
100
AcDbCircle
 10
212.0
 20
36.0
 30
0.0
 40
3.0
100
AcDbArc
 50
0.000000000000007
 51
90.0
  0
LINE
  5
1E16
330
1F
100
AcDbEntity
  8
0
  6
Continuous
370
    50
100
AcDbLine
 10
146.5
 20
36.0
 30
0.0
 11
146.4999999999999
 21
0.0
 31
0.0
  0
ARC
  5
1E17
330
1F
100
AcDbEntity
  8
0
  6
Continuous
370
    50
100
AcDbCircle
 10
148.0
 20
36.0
 30
0.0
 40
1.5
100
AcDbArc
 50
90.0
 51
180.0
  0
LINE
  5
1E18
330
1F
100
AcDbEntity
  8
0
  6
Continuous
370
    50
100
AcDbLine
 10
213.5
 20
36.0
 30
0.0
 11
213.5
 21
0.0
 31
0.0
  0
LINE
  5
1E19
330
1F
100
AcDbEntity
  8
0
  6
Continuous
370
    50
100
AcDbLine
 10
212.0
 20
39.0
 30
0.0
 11
148.0
 21
39.0
 31
0.0
  0
LINE
  5
1E1A
330
1F
100
AcDbEntity
  8
0
  6
Continuous
370
    50
100
AcDbLine
 10
215.0
 20
0.0
 30
0.0
 11
213.4999999999999
 21
0.0000000000000005
 31
0.0
  0
LINE
  5
1E1B
330
1F
100
AcDbEntity
  8
0
  6
Continuous
370
    50
100
AcDbLine
 10
212.0
 20
37.5
 30
0.0
 11
148.0
 21
37.5
 31
0.0
  0
ARC
  5
1E1C
330
1F
100
AcDbEntity
  8
0
  6
Continuous
370
    50
100
AcDbCircle
 10
212.0
 20
36.0
 30
0.0
 40
1.5
100
AcDbArc
 50
0.000000000000007
 51
90.0
  0
LINE
  5
1E30
330
1F
100
AcDbEntity
  8
0
  6
Continuous
370
    50
100
AcDbLine
 10
328.0
 20
0.0
 30
0.0
 11
447.0
 21
0.0
 31
0.0
  0
ARC
  5
1E31
330
1F
100
AcDbEntity
  8
0
  6
Continuous
370
    50
100
AcDbCircle
 10
328.0
 20
2.999999999999999
 30
0.0
 40
3.0
100
AcDbArc
 50
180.0
 51
270.0
  0
ARC
  5
1E32
330
1F
100
AcDbEntity
  8
0
  6
Continuous
370
    50
100
AcDbCircle
 10
447.0
 20
2.999999999999999
 30
0.0
 40
3.0
100
AcDbArc
 50
270.0
 51
0.0
  0
LINE
  5
1E33
330
1F
100
AcDbEntity
  8
0
  6
Continuous
370
    50
100
AcDbLine
 10
450.0
 20
2.999999999999999
 30
0.0
 11
450.0
 21
39.0
 31
0.0
  0
LINE
  5
1E34
330
1F
100
AcDbEntity
  8
0
  6
Continuous
370
    50
100
AcDbLine
 10
450.0
 20
39.0
 30
0.0
 11
325.0
 21
39.0
 31
0.0
  0
LINE
  5
1E35
330
1F
100
AcDbEntity
  8
0
  6
Continuous
370
    50
100
AcDbLine
 10
325.0
 20
39.0
 30
0.0
 11
325.0
 21
3.0
 31
0.0
  0
LINE
  5
1E36
330
1F
100
AcDbEntity
  8
0
  6
Continuous
370
    50
100
AcDbLine
 10
450.0
 20
59.0
 30
0.0
 11
325.0
 21
59.0
 31
0.0
  0
LINE
  5
1E37
330
1F
100
AcDbEntity
  8
0
  6
Continuous
370
    50
100
AcDbLine
 10
450.0
 20
60.5
 30
0.0
 11
325.0
 21
60.5
 31
0.0
  0
LINE
  5
1E38
330
1F
100
AcDbEntity
  8
0
  6
Continuous
370
    50
100
AcDbLine
 10
450.0
 20
127.5
 30
0.0
 11
325.0
 21
127.5
 31
0.0
  0
LINE
  5
1E39
330
1F
100
AcDbEntity
  8
0
  6
Continuous
370
    50
100
AcDbLine
 10
450.0
 20
129.0
 30
0.0
 11
325.0
 21
129.0
 31
0.0
  0
LINE
  5
1E3A
330
1F
100
AcDbEntity
  8
0
  6
Continuous
370
    50
100
AcDbLine
 10
325.0
 20
129.0
 30
0.0
 11
325.0
 21
59.0
 31
0.0
  0
LINE
  5
1E3B
330
1F
100
AcDbEntity
  8
0
  6
Continuous
370
    50
100
AcDbLine
 10
450.0
 20
129.0
 30
0.0
 11
450.0
 21
59.0
 31
0.0
  0
LINE
  5
1E3E
330
1F
100
AcDbEntity
  8
0
  6
Continuous
370
    50
100
AcDbLine
 10
328.0
 20
-110.0
 30
0.0
 11
447.0
 21
-110.0
 31
0.0
  0
ARC
  5
1E3F
330
1F
100
AcDbEntity
  8
0
  6
Continuous
370
    50
100
AcDbCircle
 10
328.0
 20
-113.0
 30
0.0
 40
3.0
100
AcDbArc
 50
90.0
 51
180.0
  0
ARC
  5
1E40
330
1F
100
AcDbEntity
  8
0
  6
Continuous
370
    50
100
AcDbCircle
 10
447.0
 20
-113.0
 30
0.0
 40
3.0
100
AcDbArc
 50
0.0
 51
90.0
  0
LINE
  5
1E41
330
1F
100
AcDbEntity
  8
0
  6
Continuous
370
    50
100
AcDbLine
 10
450.0
 20
-113.0
 30
0.0
 11
450.0
 21
-149.0
 31
0.0
  0
LINE
  5
1E42
330
1F
100
AcDbEntity
  8
0
  6
Continuous
370
    50
100
AcDbLine
 10
450.0
 20
-149.0
 30
0.0
 11
325.0
 21
-149.0
 31
0.0
  0
LINE
  5
1E43
330
1F
100
AcDbEntity
  8
0
  6
Continuous
370
    50
100
AcDbLine
 10
325.0
 20
-149.0
 30
0.0
 11
325.0
 21
-113.0
 31
0.0
  0
LINE
  5
1E44
330
1F
100
AcDbEntity
  8
0
  6
Continuous
370
    50
100
AcDbLine
 10
450.0
 20
-20.0
 30
0.0
 11
325.0
 21
-20.0
 31
0.0
  0
LINE
  5
1E45
330
1F
100
AcDbEntity
  8
0
  6
Continuous
370
    50
100
AcDbLine
 10
450.0
 20
-90.0
 30
0.0
 11
325.0
 21
-90.0
 31
0.0
  0
LINE
  5
1E46
330
1F
100
AcDbEntity
  8
0
  6
Continuous
370
    50
100
AcDbLine
 10
325.0
 20
-90.0
 30
0.0
 11
325.0
 21
-20.0
 31
0.0
  0
LINE
  5
1E47
330
1F
100
AcDbEntity
  8
0
  6
Continuous
370
    50
100
AcDbLine
 10
450.0
 20
-90.0
 30
0.0
 11
450.0
 21
-20.0
 31
0.0
  0
LINE
  5
1E48
330
1F
100
AcDbEntity
  8
0
  6
Continuous
370
    50
100
AcDbLine
 10
305.0
 20
36.0
 30
0.0
 11
305.0
 21
0.0
 31
0.0
  0
ARC
  5
1E49
330
1F
100
AcDbEntity
  8
0
  6
Continuous
370
    50
100
AcDbCircle
 10
302.0
 20
36.0
 30
0.0
 40
3.0
100
AcDbArc
 50
0.0
 51
90.0
  0
LINE
  5
1E4A
330
1F
100
AcDbEntity
  8
0
  6
Continuous
370
    50
100
AcDbLine
 10
235.0
 20
36.0
 30
0.0
 11
235.0
 21
0.0
 31
0.0
  0
ARC
  5
1E4B
330
1F
100
AcDbEntity
  8
0
  6
Continuous
370
    50
100
AcDbCircle
 10
238.0
 20
36.0
 30
0.0
 40
3.0
100
AcDbArc
 50
90.0
 51
180.0
  0
LINE
  5
1E4C
330
1F
100
AcDbEntity
  8
0
  6
Continuous
370
    50
100
AcDbLine
 10
303.5
 20
36.0
 30
0.0
 11
303.5
 21
0.0
 31
0.0
  0
ARC
  5
1E4D
102
{ACAD_REACTORS
330
2050
102
}
330
1F
100
AcDbEntity
  8
0
  6
Continuous
370
    50
100
AcDbCircle
 10
302.0
 20
36.0
 30
0.0
 40
1.5
100
AcDbArc
 50
0.0
 51
90.0
  0
LINE
  5
1E4E
330
1F
100
AcDbEntity
  8
0
  6
Continuous
370
    50
100
AcDbLine
 10
236.5
 20
36.0
 30
0.0
 11
236.5
 21
0.0
 31
0.0
  0
LINE
  5
1E4F
330
1F
100
AcDbEntity
  8
0
  6
Continuous
370
    50
100
AcDbLine
 10
238.0
 20
39.0
 30
0.0
 11
302.0
 21
39.0
 31
0.0
  0
LINE
  5
1E50
330
1F
100
AcDbEntity
  8
0
  6
Continuous
370
    50
100
AcDbLine
 10
235.0
 20
0.0
 30
0.0
 11
236.5
 21
0.0000000000000005
 31
0.0
  0
LINE
  5
1E51
330
1F
100
AcDbEntity
  8
0
  6
Continuous
370
    50
100
AcDbLine
 10
238.0
 20
37.5
 30
0.0
 11
302.0
 21
37.5
 31
0.0
  0
ARC
  5
1E52
330
1F
100
AcDbEntity
  8
0
  6
Continuous
370
    50
100
AcDbCircle
 10
238.0
 20
36.0
 30
0.0
 40
1.5
100
AcDbArc
 50
90.0
 51
180.0
  0
LINE
  5
1E53
330
1F
100
AcDbEntity
  8
0
  6
Continuous
370
    50
100
AcDbLine
 10
470.0
 20
36.0
 30
0.0
 11
470.0
 21
0.0
 31
0.0
  0
ARC
  5
1E54
330
1F
100
AcDbEntity
  8
0
  6
Continuous
370
    50
100
AcDbCircle
 10
473.0
 20
36.0
 30
0.0
 40
3.0
100
AcDbArc
 50
90.0
 51
180.0
  0
LINE
  5
1E55
330
1F
100
AcDbEntity
  8
0
  6
Continuous
370
    50
100
AcDbLine
 10
540.0
 20
36.0
 30
0.0
 11
540.0
 21
0.0
 31
0.0
  0
ARC
  5
1E56
330
1F
100
AcDbEntity
  8
0
  6
Continuous
370
    50
100
AcDbCircle
 10
537.0
 20
36.0
 30
0.0
 40
3.0
100
AcDbArc
 50
0.000000000000007
 51
90.0
  0
LINE
  5
1E57
330
1F
100
AcDbEntity
  8
0
  6
Continuous
370
    50
100
AcDbLine
 10
471.4999999999999
 20
36.0
 30
0.0
 11
471.4999999999999
 21
0.0
 31
0.0
  0
ARC
  5
1E58
330
1F
100
AcDbEntity
  8
0
  6
Continuous
370
    50
100
AcDbCircle
 10
473.0
 20
36.0
 30
0.0
 40
1.5
100
AcDbArc
 50
90.0
 51
180.0
  0
LINE
  5
1E59
330
1F
100
AcDbEntity
  8
0
  6
Continuous
370
    50
100
AcDbLine
 10
538.4999999999999
 20
36.0
 30
0.0
 11
538.4999999999999
 21
0.0
 31
0.0
  0
LINE
  5
1E5A
330
1F
100
AcDbEntity
  8
0
  6
Continuous
370
    50
100
AcDbLine
 10
537.0
 20
39.0
 30
0.0
 11
473.0
 21
39.0
 31
0.0
  0
LINE
  5
1E5B
330
1F
100
AcDbEntity
  8
0
  6
Continuous
370
    50
100
AcDbLine
 10
540.0
 20
0.0
 30
0.0
 11
538.4999999999999
 21
0.0000000000000005
 31
0.0
  0
LINE
  5
1E5C
330
1F
100
AcDbEntity
  8
0
  6
Continuous
370
    50
100
AcDbLine
 10
537.0
 20
37.5
 30
0.0
 11
473.0
 21
37.5
 31
0.0
  0
ARC
  5
1E5D
330
1F
100
AcDbEntity
  8
0
  6
Continuous
370
    50
100
AcDbCircle
 10
537.0
 20
36.0
 30
0.0
 40
1.5
100
AcDbArc
 50
0.000000000000007
 51
90.0
  0
LINE
  5
1E5F
330
1F
100
AcDbEntity
  8
0
  6
Continuous
370
    50
100
AcDbLine
 10
303.5
 20
0.000000000000025
 30
0.0
 11
305.0
 21
0.0000000000000255
 31
0.0
  0
LINE
  5
1E60
330
1F
100
AcDbEntity
  8
0
  6
Continuous
370
    50
100
AcDbLine
 10
471.4999999999999
 20
0.000000000000025
 30
0.0
 11
470.0
 21
0.0000000000000255
 31
0.0
  0
LINE
  5
1E61
330
1F
100
AcDbEntity
  8
0
  6
Continuous
370
    50
100
AcDbLine
 10
656.0
 20
0.0
 30
0.0
 11
768.9999999999998
 21
0.0
 31
0.0
  0
LINE
  5
1E6D
330
1F
100
AcDbEntity
  8
0
  6
Continuous
370
    50
100
AcDbLine
 10
654.0
 20
127.2
 30
0.0
 11
654.0
 21
60.8
 31
0.0
  0
LINE
  5
1E6E
330
1F
100
AcDbEntity
  8
0
  6
Continuous
370
    50
100
AcDbLine
 10
771.0
 20
127.2
 30
0.0
 11
770.9999999999999
 21
60.8
 31
0.0
  0
LINE
  5
1E75
330
1F
100
AcDbEntity
  8
0
  6
Continuous
370
    50
100
AcDbLine
 10
771.0
 20
-21.8
 30
0.0
 11
654.0
 21
-21.8
 31
0.0
  0
LINE
  5
1E76
330
1F
100
AcDbEntity
  8
0
  6
Continuous
370
    50
100
AcDbLine
 10
771.0
 20
-88.19999999999998
 30
0.0
 11
654.0
 21
-88.19999999999998
 31
0.0
  0
LINE
  5
1E8F
330
1F
100
AcDbEntity
  8
0
  6
Continuous
100
AcDbLine
 10
654.0
 20
37.20000000000001
 30
0.0
 11
654.0
 21
2.0
 31
0.0
  0
LINE
  5
1E90
330
1F
100
AcDbEntity
  8
0
  6
Continuous
100
AcDbLine
 10
770.9999999999999
 20
37.20000000000001
 30
0.0
 11
770.9999999999999
 21
2.0
 31
0.0
  0
LINE
  5
1EE4
330
1F
100
AcDbEntity
  8
0
  6
Continuous
100
AcDbLine
 10
666.5
 20
-21.8
 30
0.0
 11
666.5
 21
-22.8
 31
0.0
  0
LINE
  5
1EE5
330
1F
100
AcDbEntity
  8
0
  6
Continuous
100
AcDbLine
 10
666.5
 20
-22.8
 30
0.0
 11
656.0000000000001
 21
-22.8
 31
0.0
  0
ARC
  5
1EE6
330
1F
100
AcDbEntity
  8
0
  6
Continuous
100
AcDbCircle
 10
656.0
 20
-23.8
 30
0.0
 40
2.0
100
AcDbArc
 50
90.0
 51
119.9999999999959
  0
ARC
  5
1EE8
330
1F
100
AcDbEntity
  8
0
  6
Continuous
100
AcDbCircle
 10
656.0000000000001
 20
-23.8
 30
0.0
 40
1.0
100
AcDbArc
 50
90.0
 51
179.9999999999999
  0
ARC
  5
1EE9
330
1F
100
AcDbEntity
  8
0
  6
Continuous
100
AcDbCircle
 10
656.0
 20
-86.19999999999999
 30
0.0
 40
2.0
100
AcDbArc
 50
180.0
 51
270.0
  0
LINE
  5
1EEA
330
1F
100
AcDbEntity
  8
0
  6
Continuous
100
AcDbLine
 10
666.5
 20
-88.19999999999998
 30
0.0
 11
666.5
 21
-87.19999999999998
 31
0.0
  0
LINE
  5
1EEB
330
1F
100
AcDbEntity
  8
0
  6
Continuous
100
AcDbLine
 10
666.5
 20
-87.19999999999998
 30
0.0
 11
656.0000000000001
 21
-87.19999999999998
 31
0.0
  0
ARC
  5
1EEC
330
1F
100
AcDbEntity
  8
0
  6
Continuous
100
AcDbCircle
 10
656.0000000000001
 20
-86.19999999999999
 30
0.0
 40
1.0
100
AcDbArc
 50
180.0
 51
270.0
  0
ARC
  5
1EEF
330
1F
100
AcDbEntity
  8
0
  6
Continuous
100
AcDbCircle
 10
769.0
 20
-23.8
 30
0.0
 40
2.0
100
AcDbArc
 50
0.0
 51
90.0
  0
LINE
  5
1EF0
330
1F
100
AcDbEntity
  8
0
  6
Continuous
100
AcDbLine
 10
758.4999999999999
 20
-21.8
 30
0.0
 11
758.4999999999999
 21
-22.8
 31
0.0
  0
LINE
  5
1EF1
330
1F
100
AcDbEntity
  8
0
  6
Continuous
100
AcDbLine
 10
758.4999999999999
 20
-22.8
 30
0.0
 11
768.9999999999998
 21
-22.8
 31
0.0
  0
ARC
  5
1EF2
330
1F
100
AcDbEntity
  8
0
  6
Continuous
100
AcDbCircle
 10
768.9999999999998
 20
-23.8
 30
0.0
 40
1.0
100
AcDbArc
 50
0.0000000000001018
 51
90.0
  0
ARC
  5
1EF3
330
1F
100
AcDbEntity
  8
0
  6
Continuous
100
AcDbCircle
 10
769.0
 20
-86.19999999999999
 30
0.0
 40
2.0
100
AcDbArc
 50
270.0
 51
0.0
  0
LINE
  5
1EF4
330
1F
100
AcDbEntity
  8
0
  6
Continuous
100
AcDbLine
 10
758.4999999999999
 20
-88.19999999999998
 30
0.0
 11
758.4999999999999
 21
-87.19999999999998
 31
0.0
  0
LINE
  5
1EF5
330
1F
100
AcDbEntity
  8
0
  6
Continuous
100
AcDbLine
 10
758.4999999999999
 20
-87.19999999999998
 30
0.0
 11
768.9999999999998
 21
-87.19999999999998
 31
0.0
  0
ARC
  5
1EF6
330
1F
100
AcDbEntity
  8
0
  6
Continuous
100
AcDbCircle
 10
768.9999999999998
 20
-86.19999999999999
 30
0.0
 40
1.0
100
AcDbArc
 50
270.0
 51
0.0
  0
LINE
  5
1EF9
330
1F
100
AcDbEntity
  8
0
  6
Continuous
100
AcDbLine
 10
655.0000000000001
 20
-87.93205080756893
 30
0.0
 11
655.0000000000001
 21
-88.19999999999998
 31
0.0
  0
LINE
  5
1EFA
330
1F
100
AcDbEntity
  8
0
  6
Continuous
100
AcDbLine
 10
769.9999999999999
 20
-21.8
 30
0.0
 11
769.9999999999999
 21
-22.06794919243106
 31
0.0
  0
LINE
  5
1EFB
330
1F
100
AcDbEntity
  8
0
  6
Continuous
100
AcDbLine
 10
769.9999999999999
 20
-87.93205080756893
 30
0.0
 11
769.9999999999999
 21
-88.19999999999998
 31
0.0
  0
LINE
  5
1F02
330
1F
100
AcDbEntity
  8
0
  6
Continuous
370
    50
100
AcDbLine
 10
121.0
 20
127.2
 30
0.0
 11
3.999999999999984
 21
127.2
 31
0.0
  0
LINE
  5
1F03
330
1F
100
AcDbEntity
  8
0
  6
Continuous
370
    50
100
AcDbLine
 10
121.0
 20
60.8
 30
0.0
 11
3.999999999999985
 21
60.79999999999999
 31
0.0
  0
LINE
  5
1F04
330
1F
100
AcDbEntity
  8
0
  6
Continuous
370
    50
100
AcDbLine
 10
146.8
 20
36.0
 30
0.0
 11
146.7999999999999
 21
-0.0000000000000002
 31
0.0
  0
ARC
  5
1F05
330
1F
100
AcDbEntity
  8
0
  6
Continuous
370
    50
100
AcDbCircle
 10
148.0
 20
36.0
 30
0.0
 40
1.199999999999999
100
AcDbArc
 50
90.0
 51
180.0
  0
LINE
  5
1F06
330
1F
100
AcDbEntity
  8
0
  6
Continuous
370
    50
100
AcDbLine
 10
212.0
 20
37.20000000000001
 30
0.0
 11
148.0
 21
37.20000000000001
 31
0.0
  0
ARC
  5
1F07
330
1F
100
AcDbEntity
  8
0
  6
Continuous
370
    50
100
AcDbCircle
 10
212.0
 20
36.0
 30
0.0
 40
1.199999999999999
100
AcDbArc
 50
0.000000000000007
 51
90.0
  0
LINE
  5
1F08
330
1F
100
AcDbEntity
  8
0
  6
Continuous
370
    50
100
AcDbLine
 10
213.2
 20
36.0
 30
0.0
 11
213.2
 21
0.0000000000000002
 31
0.0
  0
LINE
  5
1F09
330
1F
100
AcDbEntity
  8
0
  6
Continuous
370
    50
100
AcDbLine
 10
146.4999999999999
 20
0.000000000000025
 30
0.0
 11
145.0
 21
0.0000000000000255
 31
0.0
  0
LINE
  5
1F0A
330
1F
100
AcDbEntity
  8
0
  6
Continuous
370
    50
100
AcDbLine
 10
213.2
 20
0.0000000000000007
 30
0.0
 11
146.7999999999999
 21
0.0000000000000249
 31
0.0
  0
LINE
  5
1F0B
330
1F
100
AcDbEntity
  8
0
  6
Continuous
370
    50
100
AcDbLine
 10
-20.00000000000003
 20
36.0
 30
0.0
 11
-20.0
 21
0.0
 31
0.0
  0
ARC
  5
1F0C
330
1F
100
AcDbEntity
  8
0
  6
Continuous
370
    50
100
AcDbCircle
 10
-23.00000000000003
 20
36.0
 30
0.0
 40
3.0
100
AcDbArc
 50
0.000000000000007
 51
90.0
  0
LINE
  5
1F0D
330
1F
100
AcDbEntity
  8
0
  6
Continuous
370
    50
100
AcDbLine
 10
-90.00000000000003
 20
36.0
 30
0.0
 11
-90.0
 21
0.0
 31
0.0
  0
ARC
  5
1F0E
330
1F
100
AcDbEntity
  8
0
  6
Continuous
370
    50
100
AcDbCircle
 10
-87.00000000000002
 20
36.0
 30
0.0
 40
3.0
100
AcDbArc
 50
90.0
 51
180.0
  0
LINE
  5
1F0F
330
1F
100
AcDbEntity
  8
0
  6
Continuous
370
    50
100
AcDbLine
 10
-21.50000000000003
 20
36.0
 30
0.0
 11
-21.5
 21
0.0
 31
0.0
  0
LINE
  5
1F10
330
1F
100
AcDbEntity
  8
0
  6
Continuous
370
    50
100
AcDbLine
 10
-21.80000000000004
 20
36.0
 30
0.0
 11
-21.80000000000001
 21
-0.0000000000000002
 31
0.0
  0
ARC
  5
1F11
330
1F
100
AcDbEntity
  8
0
  6
Continuous
370
    50
100
AcDbCircle
 10
-23.00000000000003
 20
36.0
 30
0.0
 40
1.5
100
AcDbArc
 50
0.000000000000007
 51
90.0
  0
ARC
  5
1F12
330
1F
100
AcDbEntity
  8
0
  6
Continuous
370
    50
100
AcDbCircle
 10
-23.00000000000003
 20
36.0
 30
0.0
 40
1.199999999999999
100
AcDbArc
 50
0.000000000000007
 51
90.0
  0
LINE
  5
1F13
330
1F
100
AcDbEntity
  8
0
  6
Continuous
370
    50
100
AcDbLine
 10
-88.50000000000003
 20
36.0
 30
0.0
 11
-88.49999999999999
 21
0.0
 31
0.0
  0
LINE
  5
1F14
330
1F
100
AcDbEntity
  8
0
  6
Continuous
370
    50
100
AcDbLine
 10
-88.20000000000002
 20
36.0
 30
0.0
 11
-88.19999999999998
 21
0.0000000000000002
 31
0.0
  0
LINE
  5
1F15
330
1F
100
AcDbEntity
  8
0
  6
Continuous
370
    50
100
AcDbLine
 10
-87.00000000000002
 20
39.0
 30
0.0
 11
-23.00000000000003
 21
39.0
 31
0.0
  0
LINE
  5
1F16
330
1F
100
AcDbEntity
  8
0
  6
Continuous
370
    50
100
AcDbLine
 10
-90.0
 20
0.0
 30
0.0
 11
-88.49999999999997
 21
0.0000000000000005
 31
0.0
  0
LINE
  5
1F17
330
1F
100
AcDbEntity
  8
0
  6
Continuous
370
    50
100
AcDbLine
 10
-88.19999999999998
 20
0.0000000000000007
 30
0.0
 11
-21.80000000000001
 21
0.0000000000000249
 31
0.0
  0
LINE
  5
1F18
330
1F
100
AcDbEntity
  8
0
  6
Continuous
370
    50
100
AcDbLine
 10
-21.5
 20
0.000000000000025
 30
0.0
 11
-20.0
 21
0.0000000000000255
 31
0.0
  0
LINE
  5
1F19
330
1F
100
AcDbEntity
  8
0
  6
Continuous
370
    50
100
AcDbLine
 10
-87.00000000000002
 20
37.5
 30
0.0
 11
-23.00000000000003
 21
37.5
 31
0.0
  0
LINE
  5
1F1A
330
1F
100
AcDbEntity
  8
0
  6
Continuous
370
    50
100
AcDbLine
 10
-87.00000000000002
 20
37.20000000000001
 30
0.0
 11
-23.00000000000003
 21
37.20000000000001
 31
0.0
  0
ARC
  5
1F1B
330
1F
100
AcDbEntity
  8
0
  6
Continuous
370
    50
100
AcDbCircle
 10
-87.00000000000002
 20
36.0
 30
0.0
 40
1.5
100
AcDbArc
 50
90.0
 51
180.0
  0
ARC
  5
1F1C
330
1F
100
AcDbEntity
  8
0
  6
Continuous
370
    50
100
AcDbCircle
 10
-87.00000000000002
 20
36.0
 30
0.0
 40
1.199999999999999
100
AcDbArc
 50
90.0
 51
180.0
  0
LINE
  5
1F21
330
1F
100
AcDbEntity
  8
0
  6
Continuous
370
    50
100
AcDbLine
 10
771.0
 20
127.2
 30
0.0
 11
654.0
 21
127.2
 31
0.0
  0
LINE
  5
1F22
330
1F
100
AcDbEntity
  8
0
  6
Continuous
370
    50
100
AcDbLine
 10
771.0
 20
60.8
 30
0.0
 11
654.0
 21
60.8
 31
0.0
  0
LINE
  5
1F23
330
1F
100
AcDbEntity
  8
0
  6
Continuous
100
AcDbLine
 10
654.0
 20
-88.19999999999998
 30
0.0
 11
654.0
 21
-21.8
 31
0.0
  0
LINE
  5
1F27
330
1F
100
AcDbEntity
  8
0
  6
Continuous
100
AcDbLine
 10
655.0000000000001
 20
-21.8
 30
0.0
 11
655.0000000000001
 21
-86.19999999999999
 31
0.0
  0
LINE
  5
1F28
330
1F
100
AcDbEntity
  8
0
  6
Continuous
100
AcDbLine
 10
770.9999999999999
 20
-88.19999999999998
 30
0.0
 11
770.9999999999999
 21
-21.8
 31
0.0
  0
LINE
  5
1F29
330
1F
100
AcDbEntity
  8
0
  6
Continuous
100
AcDbLine
 10
769.9999999999999
 20
-23.79999999999999
 30
0.0
 11
769.9999999999999
 21
-86.19999999999999
 31
0.0
  0
LINE
  5
1F2C
330
1F
100
AcDbEntity
  8
0
  6
Continuous
370
    50
100
AcDbLine
 10
627.8999999999999
 20
36.0
 30
0.0
 11
627.9
 21
0.0000000000000001
 31
0.0
  0
ARC
  5
1F2D
330
1F
100
AcDbEntity
  8
0
  6
Continuous
370
    50
100
AcDbCircle
 10
626.7
 20
36.0
 30
0.0
 40
1.199999999999999
100
AcDbArc
 50
0.000000000000007
 51
90.0
  0
LINE
  5
1F2E
330
1F
100
AcDbEntity
  8
0
  6
Continuous
370
    50
100
AcDbLine
 10
561.5
 20
36.0
 30
0.0
 11
561.5
 21
0.0000000000000005
 31
0.0
  0
LINE
  5
1F2F
330
1F
100
AcDbEntity
  8
0
  6
Continuous
370
    50
100
AcDbLine
 10
561.5
 20
0.000000000000001
 30
0.0
 11
627.9
 21
0.0000000000000252
 31
0.0
  0
LINE
  5
1F30
330
1F
100
AcDbEntity
  8
0
  6
Continuous
370
    50
100
AcDbLine
 10
562.7
 20
37.20000000000001
 30
0.0
 11
626.7
 21
37.20000000000001
 31
0.0
  0
ARC
  5
1F31
330
1F
100
AcDbEntity
  8
0
  6
Continuous
370
    50
100
AcDbCircle
 10
562.7
 20
36.0
 30
0.0
 40
1.199999999999999
100
AcDbArc
 50
90.0
 51
180.0
  0
LINE
  5
1F32
330
1F
100
AcDbEntity
  8
0
  6
Continuous
370
    50
100
AcDbLine
 10
862.8999999999999
 20
36.0
 30
0.0
 11
862.9000000000001
 21
-0.0000000000000005
 31
0.0
  0
ARC
  5
1F33
330
1F
100
AcDbEntity
  8
0
  6
Continuous
370
    50
100
AcDbCircle
 10
861.7
 20
36.0
 30
0.0
 40
1.199999999999999
100
AcDbArc
 50
0.000000000000007
 51
90.0
  0
LINE
  5
1F34
330
1F
100
AcDbEntity
  8
0
  6
Continuous
370
    50
100
AcDbLine
 10
796.4999999999999
 20
36.0
 30
0.0
 11
796.4999999999999
 21
0.0
 31
0.0
  0
LINE
  5
1F35
330
1F
100
AcDbEntity
  8
0
  6
Continuous
370
    50
100
AcDbLine
 10
796.4999999999999
 20
0.0000000000000004
 30
0.0
 11
862.9000000000001
 21
0.0000000000000246
 31
0.0
  0
LINE
  5
1F36
330
1F
100
AcDbEntity
  8
0
  6
Continuous
370
    50
100
AcDbLine
 10
797.7
 20
37.20000000000001
 30
0.0
 11
861.7
 21
37.20000000000001
 31
0.0
  0
ARC
  5
1F37
330
1F
100
AcDbEntity
  8
0
  6
Continuous
370
    50
100
AcDbCircle
 10
797.7
 20
36.0
 30
0.0
 40
1.199999999999999
100
AcDbArc
 50
90.0
 51
180.0
  0
LINE
  5
1F3B
330
1F
100
AcDbEntity
  8
0
  6
Continuous
100
AcDbLine
 10
-88.19999999999998
 20
0.0000000000000007
 30
0.0
 11
-88.19999999999998
 21
3.0
 31
0.0
  0
LINE
  5
1F3C
330
1F
100
AcDbEntity
  8
0
  6
Continuous
100
AcDbLine
 10
-88.19999999999998
 20
3.0
 30
0.0
 11
-86.19999999999999
 21
3.0
 31
0.0
  0
LINE
  5
1F3D
330
1F
100
AcDbEntity
  8
0
  6
Continuous
100
AcDbLine
 10
-21.80000000000001
 20
3.0
 30
0.0
 11
-23.80000000000001
 21
3.0
 31
0.0
  0
LINE
  5
1F3E
330
1F
100
AcDbEntity
  8
0
  6
Continuous
100
AcDbLine
 10
561.5
 20
3.0
 30
0.0
 11
563.4999999999999
 21
3.0
 31
0.0
  0
LINE
  5
1F3F
330
1F
100
AcDbEntity
  8
0
  6
Continuous
100
AcDbLine
 10
627.9
 20
3.0
 30
0.0
 11
625.9000000000001
 21
3.0
 31
0.0
  0
LINE
  5
1F40
330
1F
100
AcDbEntity
  8
0
  6
Continuous
100
AcDbLine
 10
796.4999999999999
 20
3.0
 30
0.0
 11
798.5
 21
3.0
 31
0.0
  0
LINE
  5
1F41
330
1F
100
AcDbEntity
  8
0
  6
Continuous
100
AcDbLine
 10
862.9000000000001
 20
3.0
 30
0.0
 11
860.9000000000001
 21
3.0
 31
0.0
  0
ARC
  5
1F42
330
1F
100
AcDbEntity
  8
0
  6
Continuous
100
AcDbCircle
 10
656.0
 20
2.0
 30
0.0
 40
2.0
100
AcDbArc
 50
180.0
 51
270.0
  0
ARC
  5
1F43
330
1F
100
AcDbEntity
  8
0
  6
Continuous
100
AcDbCircle
 10
768.9999999999998
 20
2.0
 30
0.0
 40
2.0
100
AcDbArc
 50
270.0
 51
0.0
  0
LINE
  5
1F44
330
1F
100
AcDbEntity
  8
0
  6
Continuous
100
AcDbLine
 10
655.0
 20
37.20000000000001
 30
0.0
 11
655.0
 21
34.2
 31
0.0
  0
ARC
  5
1F45
330
1F
100
AcDbEntity
  8
0
  6
Continuous
100
AcDbCircle
 10
656.0
 20
2.0
 30
0.0
 40
1.0
100
AcDbArc
 50
180.0
 51
270.0
  0
LINE
  5
1F46
330
1F
100
AcDbEntity
  8
0
  6
Continuous
370
    50
100
AcDbLine
 10
656.0
 20
1.0
 30
0.0
 11
768.9999999999998
 21
1.0
 31
0.0
  0
ARC
  5
1F47
330
1F
100
AcDbEntity
  8
0
  6
Continuous
100
AcDbCircle
 10
768.9999999999998
 20
2.0
 30
0.0
 40
1.0
100
AcDbArc
 50
270.0
 51
0.0
  0
LINE
  5
1F48
330
1F
100
AcDbEntity
  8
0
  6
Continuous
100
AcDbLine
 10
769.9999999999997
 20
37.20000000000001
 30
0.0
 11
769.9999999999997
 21
34.2
 31
0.0
  0
LINE
  5
1F4E
330
1F
100
AcDbEntity
  8
0
  6
Continuous
100
AcDbLine
 10
654.0
 20
37.20000000000001
 30
0.0
 11
655.0
 21
37.20000000000001
 31
0.0
  0
LINE
  5
1F4F
330
1F
100
AcDbEntity
  8
0
  6
Continuous
100
AcDbLine
 10
769.9999999999997
 20
37.20000000000001
 30
0.0
 11
770.9999999999999
 21
37.20000000000001
 31
0.0
  0
LINE
  5
1F51
330
1F
100
AcDbEntity
  8
0
  6
Continuous
100
AcDbLine
 10
563.4999999999999
 20
34.2
 30
0.0
 11
561.5
 21
34.2
 31
0.0
  0
LINE
  5
1F52
330
1F
100
AcDbEntity
  8
0
  6
Continuous
100
AcDbLine
 10
625.9000000000001
 20
34.2
 30
0.0
 11
627.9
 21
34.2
 31
0.0
  0
LINE
  5
1F53
330
1F
100
AcDbEntity
  8
0
  6
Continuous
100
AcDbLine
 10
798.5
 20
34.2
 30
0.0
 11
796.4999999999999
 21
34.2
 31
0.0
  0
LINE
  5
1F54
330
1F
100
AcDbEntity
  8
0
  6
Continuous
100
AcDbLine
 10
860.9000000000001
 20
34.2
 30
0.0
 11
862.9000000000001
 21
34.2
 31
0.0
  0
LINE
  5
1F55
330
1F
100
AcDbEntity
  8
0
  6
Continuous
100
AcDbLine
 10
148.7999999999999
 20
34.2
 30
0.0
 11
146.7999999999999
 21
34.2
 31
0.0
  0
LINE
  5
1F56
330
1F
100
AcDbEntity
  8
0
  6
Continuous
100
AcDbLine
 10
211.2
 20
34.2
 30
0.0
 11
213.2000000000001
 21
34.2
 31
0.0
  0
LINE
  5
1F57
330
1F
100
AcDbEntity
  8
0
  6
Continuous
100
AcDbLine
 10
-86.20000000000004
 20
34.19999999999949
 30
0.0
 11
-88.20000000000005
 21
34.19999999999949
 31
0.0
  0
LINE
  5
1F58
330
1F
100
AcDbEntity
  8
0
  6
Continuous
100
AcDbLine
 10
-23.79999999999995
 20
34.19999999999949
 30
0.0
 11
-21.79999999999996
 21
34.19999999999949
 31
0.0
  0
LINE
  5
1F59
330
1F
100
AcDbEntity
  8
0
  6
Continuous
100
AcDbLine
 10
146.7999999999999
 20
3.000000000000327
 30
0.0
 11
148.7999999999999
 21
3.000000000000327
 31
0.0
  0
LINE
  5
1F5A
330
1F
100
AcDbEntity
  8
0
  6
Continuous
100
AcDbLine
 10
213.2000000000001
 20
3.000000000000327
 30
0.0
 11
211.2
 21
3.000000000000327
 31
0.0
  0
LINE
  5
1F5B
330
1F
100
AcDbEntity
  8
0
  6
Continuous
100
AcDbLine
 10
654.0
 20
34.2
 30
0.0
 11
664.5
 21
34.2
 31
0.0
  0
LINE
  5
1F5C
330
1F
100
AcDbEntity
  8
0
  6
Continuous
100
AcDbLine
 10
654.0
 20
3.0
 30
0.0
 11
664.5
 21
3.0
 31
0.0
  0
LINE
  5
1F5E
330
1F
100
AcDbEntity
  8
0
  6
Continuous
100
AcDbLine
 10
666.5
 20
32.20000000000001
 30
0.0
 11
666.5
 21
5.0
 31
0.0
  0
LINE
  5
1F5F
330
1F
100
AcDbEntity
  8
0
  6
Continuous
100
AcDbLine
 10
758.4999999999999
 20
32.20000000000001
 30
0.0
 11
758.4999999999999
 21
5.0
 31
0.0
  0
LINE
  5
1F60
330
1F
100
AcDbEntity
  8
0
  6
Continuous
100
AcDbLine
 10
760.5
 20
3.0
 30
0.0
 11
770.9999999999999
 21
3.0
 31
0.0
  0
LINE
  5
1F61
330
1F
100
AcDbEntity
  8
0
  6
Continuous
100
AcDbLine
 10
760.5
 20
34.2
 30
0.0
 11
770.9999999999999
 21
34.2
 31
0.0
  0
LINE
  5
1F62
330
1F
100
AcDbEntity
  8
0
  6
Continuous
100
AcDbLine
 10
655.0
 20
3.0
 30
0.0
 11
655.0
 21
2.0
 31
0.0
  0
LINE
  5
1F63
330
1F
100
AcDbEntity
  8
0
  6
Continuous
100
AcDbLine
 10
769.9999999999999
 20
3.0
 30
0.0
 11
769.9999999999999
 21
2.0
 31
0.0
  0
ARC
  5
1F64
330
1F
100
AcDbEntity
  8
0
  6
Continuous
100
AcDbCircle
 10
664.5
 20
32.20000000000001
 30
0.0
 40
2.0
100
AcDbArc
 50
0.0
 51
90.0
  0
ARC
  5
1F65
330
1F
100
AcDbEntity
  8
0
  6
Continuous
100
AcDbCircle
 10
664.5
 20
5.0
 30
0.0
 40
2.0
100
AcDbArc
 50
270.0
 51
0.0
  0
ARC
  5
1F66
330
1F
100
AcDbEntity
  8
0
  6
Continuous
100
AcDbCircle
 10
760.5
 20
5.0
 30
0.0
 40
2.0
100
AcDbArc
 50
180.0
 51
270.0
  0
ARC
  5
1F67
330
1F
100
AcDbEntity
  8
0
  6
Continuous
100
AcDbCircle
 10
760.5
 20
32.20000000000001
 30
0.0
 40
2.0
100
AcDbArc
 50
90.0
 51
180.0
  0
CIRCLE
  5
1F99
330
1F
100
AcDbEntity
  8
0
  6
Continuous
100
AcDbCircle
 10
40.1
 20
-55.0
 30
0.0
 40
3.75
  0
CIRCLE
  5
1F9E
330
1F
100
AcDbEntity
  8
0
  6
Continuous
100
AcDbCircle
 10
101.9
 20
-55.0
 30
0.0
 40
6.0
  0
LWPOLYLINE
  5
1FA2
330
1F
100
AcDbEntity
  8
0
  6
Continuous
100
AcDbPolyline
 90
        4
 70
     1
 43
0.0
 10
84.65000000000001
 20
-57.5
 10
87.15000000000001
 20
-57.5
 10
87.15000000000001
 20
-52.5
 10
84.65000000000001
 20
-52.5
  0
CIRCLE
  5
1FA5
330
1F
100
AcDbEntity
  8
0
  6
Continuous
100
AcDbCircle
 10
62.5
 20
-129.0
 30
0.0
 40
3.75
  0
LWPOLYLINE
  5
1FA9
330
1F
100
AcDbEntity
  8
0
  6
Continuous
100
AcDbPolyline
 90
        8
 70
     1
 43
0.0
 10
78.5
 20
-132.5
 10
78.5
 20
-132.5
 42
0.4142135623730951
 10
80.25
 20
-130.75
 10
80.25
 20
-127.25
 42
0.4142135623730951
 10
78.5
 20
-125.5
 10
78.5
 20
-125.5
 42
0.4142135623730951
 10
76.75
 20
-127.25
 10
76.75
 20
-130.75
 42
0.4142135623730951
  0
CIRCLE
  5
1FAD
330
1F
100
AcDbEntity
  8
0
  6
Continuous
100
AcDbCircle
 10
164.0
 20
18.2
 30
0.0
 40
5.5
  0
CIRCLE
  5
1FAE
330
1F
100
AcDbEntity
  8
0
  6
Continuous
100
AcDbCircle
 10
196.0
 20
18.2
 30
0.0
 40
5.5
  0
CIRCLE
  5
1FAF
330
1F
100
AcDbEntity
  8
0
  6
Continuous
100
AcDbCircle
 10
180.0
 20
18.2
 30
0.0
 40
4.0
  0
CIRCLE
  5
1FB2
330
1F
100
AcDbEntity
  8
0
  6
Continuous
100
AcDbCircle
 10
662.5
 20
18.6
 30
0.0
 40
1.25
  0
ARC
  5
1FB6
330
1F
100
AcDbEntity
  8
0
  6
Continuous
100
AcDbCircle
 10
662.5
 20
18.59999999999999
 30
0.0
 40
1.499999999999999
100
AcDbArc
 50
10.00000000000019
 51
280.0
  0
CIRCLE
  5
1FB8
330
1F
100
AcDbEntity
  8
0
  6
Continuous
100
AcDbCircle
 10
762.5
 20
18.6
 30
0.0
 40
1.25
  0
ARC
  5
1FB9
330
1F
100
AcDbEntity
  8
0
  6
Continuous
100
AcDbCircle
 10
762.5
 20
18.59999999999999
 30
0.0
 40
1.499999999999999
100
AcDbArc
 50
10.00000000000021
 51
280.0000000000002
  0
CIRCLE
  5
1FBA
330
1F
100
AcDbEntity
  8
0
  6
Continuous
100
AcDbCircle
 10
813.7
 20
18.2
 30
0.0
 40
5.5
  0
CIRCLE
  5
1FBB
330
1F
100
AcDbEntity
  8
0
  6
Continuous
100
AcDbCircle
 10
845.7
 20
18.2
 30
0.0
 40
5.5
  0
CIRCLE
  5
1FBC
330
1F
100
AcDbEntity
  8
0
  6
Continuous
100
AcDbCircle
 10
829.7
 20
18.2
 30
0.0
 40
4.0
  0
CIRCLE
  5
1FBD
330
1F
100
AcDbEntity
  8
0
  6
Continuous
100
AcDbCircle
 10
365.1
 20
-55.0
 30
0.0
 40
3.75
  0
CIRCLE
  5
1FBE
330
1F
100
AcDbEntity
  8
0
  6
Continuous
100
AcDbCircle
 10
426.9
 20
-55.0
 30
0.0
 40
6.0
  0
LWPOLYLINE
  5
1FBF
330
1F
100
AcDbEntity
  8
0
  6
Continuous
100
AcDbPolyline
 90
        4
 70
     1
 43
0.0
 10
409.6499999999999
 20
-57.5
 10
412.15
 20
-57.5
 10
412.15
 20
-52.5
 10
409.6499999999999
 20
-52.5
  0
CIRCLE
  5
1FC0
330
1F
100
AcDbEntity
  8
0
  6
Continuous
100
AcDbCircle
 10
387.5
 20
-129.0
 30
0.0
 40
3.75
  0
LWPOLYLINE
  5
1FC1
330
1F
100
AcDbEntity
  8
0
  6
Continuous
100
AcDbPolyline
 90
        8
 70
     1
 43
0.0
 10
403.5
 20
-132.5
 10
403.5
 20
-132.5
 42
0.4142135623730951
 10
405.25
 20
-130.75
 10
405.25
 20
-127.25
 42
0.4142135623730951
 10
403.5
 20
-125.5
 10
403.5
 20
-125.5
 42
0.4142135623730951
 10
401.75
 20
-127.25
 10
401.75
 20
-130.75
 42
0.4142135623730951
  0
CIRCLE
  5
1FC2
330
1F
100
AcDbEntity
  8
0
  6
Continuous
100
AcDbCircle
 10
337.5
 20
18.6
 30
0.0
 40
1.5
  0
CIRCLE
  5
1FC3
102
{ACAD_REACTORS
330
200D
102
}
330
1F
100
AcDbEntity
  8
0
  6
Continuous
100
AcDbCircle
 10
437.5
 20
18.6
 30
0.0
 40
1.5
  0
CIRCLE
  5
1FC7
330
1F
100
AcDbEntity
  8
0
  6
Continuous
100
AcDbCircle
 10
337.5
 20
18.6
 30
0.0
 40
3.0
  0
CIRCLE
  5
1FC8
330
1F
100
AcDbEntity
  8
0
  6
Continuous
100
AcDbCircle
 10
437.5
 20
18.6
 30
0.0
 40
3.0
  0
CIRCLE
  5
1FC9
330
1F
100
AcDbEntity
  8
0
  6
Continuous
100
AcDbCircle
 10
337.5
 20
-128.6
 30
0.0
 40
1.5
  0
CIRCLE
  5
1FCA
330
1F
100
AcDbEntity
  8
0
  6
Continuous
100
AcDbCircle
 10
437.5
 20
-128.6
 30
0.0
 40
1.5
  0
CIRCLE
  5
1FCB
330
1F
100
AcDbEntity
  8
0
  6
Continuous
100
AcDbCircle
 10
337.5
 20
-128.6
 30
0.0
 40
3.0
  0
CIRCLE
  5
1FCC
330
1F
100
AcDbEntity
  8
0
  6
Continuous
100
AcDbCircle
 10
437.5
 20
-128.6
 30
0.0
 40
3.0
  0
CIRCLE
  5
1FCD
330
1F
100
AcDbEntity
  8
0
  6
Continuous
100
AcDbCircle
 10
12.5
 20
18.6
 30
0.0
 40
1.5
  0
CIRCLE
  5
1FCE
330
1F
100
AcDbEntity
  8
0
  6
Continuous
100
AcDbCircle
 10
112.5
 20
18.6
 30
0.0
 40
1.5
  0
CIRCLE
  5
1FCF
330
1F
100
AcDbEntity
  8
0
  6
Continuous
100
AcDbCircle
 10
12.5
 20
18.6
 30
0.0
 40
3.0
  0
CIRCLE
  5
1FD0
330
1F
100
AcDbEntity
  8
0
  6
Continuous
100
AcDbCircle
 10
112.5
 20
18.6
 30
0.0
 40
3.0
  0
CIRCLE
  5
1FD1
330
1F
100
AcDbEntity
  8
0
  6
Continuous
100
AcDbCircle
 10
12.5
 20
-128.6
 30
0.0
 40
1.5
  0
CIRCLE
  5
1FD2
330
1F
100
AcDbEntity
  8
0
  6
Continuous
100
AcDbCircle
 10
112.5
 20
-128.6
 30
0.0
 40
1.5
  0
CIRCLE
  5
1FD3
330
1F
100
AcDbEntity
  8
0
  6
Continuous
100
AcDbCircle
 10
12.5
 20
-128.6
 30
0.0
 40
3.0
  0
CIRCLE
  5
1FD4
330
1F
100
AcDbEntity
  8
0
  6
Continuous
100
AcDbCircle
 10
112.5
 20
-128.6
 30
0.0
 40
3.0
  0
LINE
  5
1FD5
330
1F
100
AcDbEntity
  8
0
  6
Continuous
370
    50
100
AcDbLine
 10
656.0
 20
-110.0
 30
0.0
 11
768.9999999999998
 21
-110.0
 31
0.0
  0
LINE
  5
1FD6
330
1F
100
AcDbEntity
  8
0
  6
Continuous
370
    50
100
AcDbLine
 10
656.0
 20
-111.0
 30
0.0
 11
768.9999999999998
 21
-111.0
 31
0.0
  0
LINE
  5
1FD7
330
1F
100
AcDbEntity
  8
0
  6
Continuous
100
AcDbLine
 10
654.0
 20
-147.2
 30
0.0
 11
654.0
 21
-112.0
 31
0.0
  0
LINE
  5
1FD8
330
1F
100
AcDbEntity
  8
0
  6
Continuous
100
AcDbLine
 10
655.0
 20
-147.2
 30
0.0
 11
655.0
 21
-144.2
 31
0.0
  0
LINE
  5
1FD9
330
1F
100
AcDbEntity
  8
0
  6
Continuous
100
AcDbLine
 10
655.0
 20
-113.0
 30
0.0
 11
655.0
 21
-112.0
 31
0.0
  0
ARC
  5
1FDA
330
1F
100
AcDbEntity
  8
0
  6
Continuous
100
AcDbCircle
 10
656.0
 20
-112.0
 30
0.0
 40
2.0
100
AcDbArc
 50
90.00000000000003
 51
180.0
  0
ARC
  5
1FDB
330
1F
100
AcDbEntity
  8
0
  6
Continuous
100
AcDbCircle
 10
656.0
 20
-112.0
 30
0.0
 40
1.0
100
AcDbArc
 50
90.00000000000003
 51
180.0
  0
LINE
  5
1FDC
330
1F
100
AcDbEntity
  8
0
  6
Continuous
100
AcDbLine
 10
770.9999999999999
 20
-147.2
 30
0.0
 11
770.9999999999999
 21
-112.0
 31
0.0
  0
LINE
  5
1FDD
330
1F
100
AcDbEntity
  8
0
  6
Continuous
100
AcDbLine
 10
769.9999999999997
 20
-147.2
 30
0.0
 11
769.9999999999997
 21
-144.2
 31
0.0
  0
LINE
  5
1FDE
330
1F
100
AcDbEntity
  8
0
  6
Continuous
100
AcDbLine
 10
769.9999999999999
 20
-113.0
 30
0.0
 11
769.9999999999999
 21
-112.0
 31
0.0
  0
ARC
  5
1FDF
330
1F
100
AcDbEntity
  8
0
  6
Continuous
100
AcDbCircle
 10
768.9999999999998
 20
-112.0
 30
0.0
 40
2.0
100
AcDbArc
 50
0.0
 51
90.00000000000003
  0
ARC
  5
1FE0
330
1F
100
AcDbEntity
  8
0
  6
Continuous
100
AcDbCircle
 10
768.9999999999998
 20
-112.0
 30
0.0
 40
1.0
100
AcDbArc
 50
0.0
 51
90.00000000000003
  0
LINE
  5
1FE1
330
1F
100
AcDbEntity
  8
0
  6
Continuous
100
AcDbLine
 10
654.0
 20
-147.2
 30
0.0
 11
655.0
 21
-147.2
 31
0.0
  0
LINE
  5
1FE2
330
1F
100
AcDbEntity
  8
0
  6
Continuous
100
AcDbLine
 10
769.9999999999997
 20
-147.2
 30
0.0
 11
770.9999999999999
 21
-147.2
 31
0.0
  0
LINE
  5
1FE3
330
1F
100
AcDbEntity
  8
0
  6
Continuous
100
AcDbLine
 10
654.0
 20
-144.2
 30
0.0
 11
664.5
 21
-144.2
 31
0.0
  0
LINE
  5
1FE4
330
1F
100
AcDbEntity
  8
0
  6
Continuous
100
AcDbLine
 10
760.5
 20
-144.2
 30
0.0
 11
770.9999999999999
 21
-144.2
 31
0.0
  0
ARC
  5
1FE5
330
1F
100
AcDbEntity
  8
0
  6
Continuous
100
AcDbCircle
 10
760.5
 20
-142.2
 30
0.0
 40
2.0
100
AcDbArc
 50
180.0
 51
270.0
  0
LINE
  5
1FE6
330
1F
100
AcDbEntity
  8
0
  6
Continuous
100
AcDbLine
 10
654.0
 20
-113.0
 30
0.0
 11
664.5
 21
-113.0
 31
0.0
  0
ARC
  5
1FE7
330
1F
100
AcDbEntity
  8
0
  6
Continuous
100
AcDbCircle
 10
664.5
 20
-115.0
 30
0.0
 40
2.0
100
AcDbArc
 50
0.0
 51
90.00000000000003
  0
LINE
  5
1FE8
330
1F
100
AcDbEntity
  8
0
  6
Continuous
100
AcDbLine
 10
760.5
 20
-113.0
 30
0.0
 11
770.9999999999999
 21
-113.0
 31
0.0
  0
LINE
  5
1FE9
330
1F
100
AcDbEntity
  8
0
  6
Continuous
100
AcDbLine
 10
666.5
 20
-142.2
 30
0.0
 11
666.5
 21
-115.0
 31
0.0
  0
ARC
  5
1FEA
330
1F
100
AcDbEntity
  8
0
  6
Continuous
100
AcDbCircle
 10
664.5
 20
-142.2
 30
0.0
 40
2.0
100
AcDbArc
 50
270.0
 51
0.0
  0
LINE
  5
1FEB
330
1F
100
AcDbEntity
  8
0
  6
Continuous
100
AcDbLine
 10
758.4999999999999
 20
-142.2
 30
0.0
 11
758.4999999999999
 21
-115.0
 31
0.0
  0
ARC
  5
1FEC
330
1F
100
AcDbEntity
  8
0
  6
Continuous
100
AcDbCircle
 10
760.5
 20
-115.0
 30
0.0
 40
2.0
100
AcDbArc
 50
90.00000000000003
 51
180.0
  0
CIRCLE
  5
1FED
330
1F
100
AcDbEntity
  8
0
  6
Continuous
100
AcDbCircle
 10
662.5
 20
-128.6
 30
0.0
 40
1.25
  0
ARC
  5
1FEE
330
1F
100
AcDbEntity
  8
0
  6
Continuous
100
AcDbCircle
 10
662.5
 20
-128.5999999999999
 30
0.0
 40
1.499999999999999
100
AcDbArc
 50
80.0
 51
349.9999999999998
  0
CIRCLE
  5
1FEF
330
1F
100
AcDbEntity
  8
0
  6
Continuous
100
AcDbCircle
 10
762.5
 20
-128.6
 30
0.0
 40
1.25
  0
ARC
  5
1FF0
330
1F
100
AcDbEntity
  8
0
  6
Continuous
100
AcDbCircle
 10
762.5
 20
-128.5999999999999
 30
0.0
 40
1.499999999999999
100
AcDbArc
 50
79.9999999999998
 51
349.9999999999998
  0
LINE
  5
1FF5
330
1F
100
AcDbEntity
  8
0
  6
Continuous
100
AcDbLine
 10
-105.0
 20
144.0
 30
0.0
 11
877.8999999999999
 21
144.0
 31
0.0
  0
LINE
  5
1FF6
330
1F
100
AcDbEntity
  8
0
  6
Continuous
100
AcDbLine
 10
877.8999999999999
 20
144.0
 30
0.0
 11
877.8999999999998
 21
-163.9999999999999
 31
0.0
  0
LINE
  5
1FF7
330
1F
100
AcDbEntity
  8
0
  6
Continuous
100
AcDbLine
 10
877.8999999999998
 20
-163.9999999999999
 30
0.0
 11
-105.0
 21
-163.9999999999999
 31
0.0
  0
LINE
  5
1FF8
330
1F
100
AcDbEntity
  8
0
  6
Continuous
100
AcDbLine
 10
-105.0
 20
-163.9999999999999
 30
0.0
 11
-105.0
 21
144.0
 31
0.0
  0
LINE
  5
1FFB
330
1F
100
AcDbEntity
  8
0
  6
Continuous
100
AcDbLine
 10
225.0
 20
144.0
 30
0.0
 11
225.0
 21
-163.9999999999999
 31
0.0
  0
LINE
  5
1FFC
330
1F
100
AcDbEntity
  8
0
  6
Continuous
100
AcDbLine
 10
550.75
 20
143.9999999999998
 30
0.0
 11
550.75
 21
-164.0000000000001
 31
0.0
  0
MTEXT
  5
2005
330
1F
100
AcDbEntity
  8
0
  6
Continuous
100
AcDbMText
 10
-83.20008758986705
 20
199.4028940601965
 30
0.0
 40
10.0
 41
289.0418378105914
 46
0.0
 71
     1
 72
     5
  1
{\fGOST Type AU|b0|i1|c204|p2;Корпус в сборе}
 73
     1
 44
1.0
1001
ACAD
1000
ACAD_MTEXT_COLUMN_INFO_BEGIN
1070
    75
1070
     2
1070
    79
1070
     0
1070
    76
1070
     1
1070
    78
1070
     0
1070
    48
1040
289.0418378105914
1070
    49
1040
12.5
1070
    50
1070
     1
1040
0.0
1000
ACAD_MTEXT_COLUMN_INFO_END
  0
MTEXT
  5
2006
330
1F
100
AcDbEntity
  8
0
  6
Continuous
100
AcDbMText
 10
246.7999124101329
 20
199.4028940601965
 30
0.0
 40
10.0
 41
289.0418378105914
 46
0.0
 71
     1
 72
     5
  1
{\fGOST Type AU|b0|i1|c204|p2;Деталь № 1. \PМатериал: черная сталь, \Pтолщина 1,5 мм}
 73
     1
 44
1.0
1001
ACAD
1000
ACAD_MTEXT_COLUMN_INFO_BEGIN
1070
    75
1070
     2
1070
    79
1070
     0
1070
    76
1070
     1
1070
    78
1070
     0
1070
    48
1040
289.0418378105914
1070
    49
1040
12.5
1070
    50
1070
     1
1040
0.0
1000
ACAD_MTEXT_COLUMN_INFO_END
  0
MTEXT
  5
2007
330
1F
100
AcDbEntity
  8
0
  6
Continuous
100
AcDbMText
 10
572.5499124101329
 20
199.4028940601965
 30
0.0
 40
10.0
 41
343.5132205342261
 46
0.0
 71
     1
 72
     5
  1
{\fGOST Type AU|b0|i1|c204|p2;Деталь № 2. \PМатериал: полированная нержавеющая сталь (зеркальная), толщина 1 мм}
 73
     1
 44
1.0
1001
ACAD
1000
ACAD_MTEXT_COLUMN_INFO_BEGIN
1070
    75
1070
     2
1070
    79
1070
     0
1070
    76
1070
     1
1070
    78
1070
     0
1070
    48
1040
343.5132205342261
1070
    49
1040
12.5
1070
    50
1070
     1
1040
0.0
1000
ACAD_MTEXT_COLUMN_INFO_END
  0
MULTILEADER
  5
200B
102
{ACAD_XDICTIONARY
360
200C
102
}
102
{ACAD_REACTORS
330
200D
102
}
330
1F
100
AcDbEntity
  8
Note
  6
Continuous
160
              1012
310
F40300001C0000000C00000016000000000000C00C00000033000000000000000C00000013000000993A0000DC00000026000000633B480A13507D40E1216C69EFAD2EC0000000000000000000000000000000000000000000000000000000000000F03F000000000000F03F00000000000000000000000000000000052233
310
0020002F00200031002E003500780034003500B00000003A000C000000010000000000000000001C40000000000000F03F65732D3852C1D03F000000000000F03F00000000000000000000000000000000000000000000000001000000010000000200000047004F0053005400200054007900700065002000410055000000
310
69000000000000006700D0000000260000008F6BCD1F8D258040E1216C69EFAD2EC0000000000000000000000000000000000000000000000000000000000000F03F000000000000F03F000000000000000000000000000000002000340020003E04420432042E00000007000000010000000000000000001C400000000000
310
00F03F65732D3852C1D03F000000000000F03F00000000000000000000000000000000000000000000000001000000010000000200000047004F0053005400200054007900700065002000410055000000300400000000000000000C00000033000000000000000C00000010000000010000000C00000016000000000000C0
310
0C00000012000000000000000C0000001300000001000000880000001D000000346A2803CBB804C090C3CC2F706208C000000000000000000000000000587B4090C3CC2F70620840346A2803CBB804C000000000000000009A9999999999324000000000000000000000000000000000000000000000104000000000000000
310
00000000000000000000000000000000000000000000000000000000000000F03F080000001F0000000C00000016000000000000C00C00000012000000000000000C00000033000000000000000C00000013000000891300003C00000006000000020000000000000000587B409A99999999993240000000000000000070D1
310
DCD601327D4080E5264C0A4330C000000000000000000C00000013000000112700003C000000060000000200000070D1DCD601327D4080E5264C0A4330C0000000000000000070D1DCD601427D4080E5264C0A4330C000000000000000000C00000016000000000000C00C00000012000000000000000C0000001700000000
310
0000000C000000130000009A3A00003C000000060000000200000070D1DCD601427D4080E5264C0A4330C000000000000000005202303212FE804080E5264C0A4330C000000000000000000C00000016000000000000C00C00000012000000000000000C00000017000000FFFFFFFF0C0000003300000000000000
100
AcDbMLeader
270
     2
300
CONTEXT_DATA{
 40
1.0
 10
468.1254490495403
 20
-16.26187587689992
 30
0.0
 41
7.0
140
4.0
145
2.0
174
     6
175
     1
176
     0
177
     0
290
     1
304
\A1;{\fGOST Type AU|b0|i1|c0|p2;%%C3 / 1.5x45%%D\fGOST Type AU|b0|i1|c204|p2; 4 отв.}
 11
0.0
 21
0.0
 31
1.0
340
11
 12
470.1254490495403
 22
-7.861875876899921
 32
0.0
 13
1.0
 23
0.0
 33
0.0
 42
0.0
 43
0.0
 44
0.0
 45
1.0
170
     1
 90
-1073741824
171
     1
172
     5
 91
-1073741824
141
0.0
 92
        0
291
     0
292
     0
173
     0
293
     0
142
0.0
143
0.0
294
     0
295
     0
296
     0
110
437.5
120
18.6
130
0.0
111
1.0
121
0.0
131
0.0
112
0.0
122
1.0
132
0.0
297
     0
302
LEADER{
290
     1
291
     1
 10
467.1254490495402
 20
-16.26187587689992
 30
0.0
 11
1.0
 21
0.0
 31
0.0
 90
        0
 40
1.0
304
LEADER_LINE{
 10
437.5
 20
18.6
 30
0.0
 91
        0
305
}
271
     0
303
}
272
     9
273
     9
301
}
340
12E
 90
   349568
170
     1
 91
-1056964608
341
14
171
    -2
290
     1
291
     1
 41
1.0
342
1C71
 42
4.0
172
     2
343
11
173
     6
 95
        1
174
     1
175
     0
 92
-1056964608
292
     0
 93
-1056964608
 10
1.0
 20
1.0
 30
1.0
 43
0.0
176
     0
293
     0
294
     0
178
   256
179
     1
 45
1.0
271
     0
272
     9
273
     9
295
     0
  0
MULTILEADER
  5
203A
330
1F
100
AcDbEntity
  8
Note
  6
Continuous
160
               804
310
240300001B0000000C00000016000000000000C00C00000033000000000000000C00000013000000993A0000DC00000026000000153E0D3000D588403E49CB313FC22DC0000000000000000000000000000000000000000000000000000000000000F03F000000000000F03F000000000000000000000000000000001C0433
310
00450430002E0035002000340020003E04420432042E0000000D000000010000000000000000001C40000000000000F03F65732D3852C1D03F000000000000F03F00000000000000000000000000000000000000000000000001000000010000000200000047004F0053005400200054007900700065002000410055000000
310
690000000000000067000C00000033000000000000000C00000010000000010000000C00000016000000000000C00C00000012000000000000000C0000001300000001000000880000001D000000346A2803CBB804C090C3CC2F706208C000000000000000000000000000D4874090C3CC2F70620840346A2803CBB804C000
310
0000000000000098999999999932400000000000000000000000000000000000000000000010400000000000000000000000000000000000000000000000000000000000000000000000000000F03F080000001F0000000C00000016000000000000C00C00000012000000000000000C00000033000000000000000C000000
310
13000000891300003C00000006000000020000000000000000D4874098999999999932400000000000000000B8686EEB00C1884082E5264C0A4330C000000000000000000C00000013000000112700003C0000000600000002000000B8686EEB00C1884082E5264C0A4330C00000000000000000B8686EEB00C9884082E526
310
4C0A4330C000000000000000000C00000016000000000000C00C00000012000000000000000C00000017000000000000000C000000130000009A3A00003C0000000600000002000000B8686EEB00C9884082E5264C0A4330C00000000000000000DCCFC322B8698A4082E5264C0A4330C000000000000000000C0000001600
310
0000000000C00C00000012000000000000000C00000017000000FFFFFFFF0C0000003300000000000000
100
AcDbMLeader
270
     2
300
CONTEXT_DATA{
 40
1.0
 10
793.1254490495403
 20
-16.26187587689993
 30
0.0
 41
7.0
140
4.0
145
2.0
174
     6
175
     1
176
     0
177
     0
290
     1
304
\A1;{\fGOST Type AU|b0|i1|c204|p2;М3х0.5 4 отв.}
 11
0.0
 21
0.0
 31
1.0
340
11
 12
795.1254490495403
 22
-7.861875876899928
 32
0.0
 13
1.0
 23
0.0
 33
0.0
 42
0.0
 43
0.0
 44
0.0
 45
1.0
170
     1
 90
-1073741824
171
     1
172
     5
 91
-1073741824
141
0.0
 92
        0
291
     0
292
     0
173
     0
293
     0
142
0.0
143
0.0
294
     0
295
     0
296
     0
110
762.5
120
18.59999999999999
130
0.0
111
1.0
121
0.0
131
0.0
112
0.0
122
1.0
132
0.0
297
     0
302
LEADER{
290
     1
291
     1
 10
792.1254490495402
 20
-16.26187587689993
 30
0.0
 11
1.0
 21
0.0
 31
0.0
 90
        0
 40
1.0
304
LEADER_LINE{
 10
762.5
 20
18.59999999999999
 30
0.0
 91
        0
305
}
271
     0
303
}
272
     9
273
     9
301
}
340
12E
 90
   349568
170
     1
 91
-1056964608
341
14
171
    -2
290
     1
291
     1
 41
1.0
342
1C71
 42
4.0
172
     2
343
11
173
     6
 95
        1
174
     1
175
     0
 92
-1056964608
292
     0
 93
-1056964608
 10
1.0
 20
1.0
 30
1.0
 43
0.0
176
     0
293
     0
294
     0
178
   256
179
     1
 45
1.0
271
     0
272
     9
273
     9
295
     0
  0
DIMENSION
  5
203D
102
{ACAD_XDICTIONARY
360
2048
102
}
102
{ACAD_REACTORS
330
2050
102
}
330
1F
100
AcDbEntity
  8
Note
  6
Continuous
100
AcDbDimension
280
     0
  2
*D5
 10
301.9999999999996
 20
35.99999999999984
 30
0.0
 11
266.798104825074
 21
17.2057046178721
 31
0.0
 70
    36
 71
     5
 42
1.499999999999658
 73
     0
 74
     0
 75
     0
  3
ISO-25
100
AcDbRadialDimension
 15
300.7682351567353
 25
35.14398868529834
 35
0.0
 40
0.0
1001
ACAD
1000
DSTYLE
1002
{
1070
     3
1000
, 90%%d 2 гиба
1070
   289
1070
     3
1070
   172
1070
     1
1070
   141
1040
2.5
1070
    41
1040
4.0
1070
   340
1005
11
1070
   288
1070
     1
1002
}
1001
ACAD_DSTYLE_DIMRADIAL_EXTENSION
1070
   387
1070
     1
1070
   388
1040
0.0
1070
   390
1040
1.570796326794896
  0
DIMENSION
  5
2350
330
1F
100
AcDbEntity
  8
Note
  6
Continuous
100
AcDbDimension
280
     0
  2
*D6
 10
655.9999999999986
 20
1.999999999999658
 30
0.0
 11
760.4999999999995
 21
41.01461723743881
 31
0.0
 70
   164
 71
     5
 42
1.000000000001136
 73
     0
 74
     0
 75
     0
  3
ISO-25
100
AcDbRadialDimension
 15
656.9368377432108
 25
2.34976426760744
 35
0.0
 40
0.0
1001
ACAD_DSTYLE_DIMRADIAL_EXTENSION
1070
   387
1070
     1
1070
   388
1040
3.141592653589793
1070
   390
1040
4.712388980384689
1001
ACAD
1000
DSTYLE
1002
{
1070
     3
1000
, 90%%d 6 гибов без повреждения поверхности
1070
    41
1040
4.0
1070
   288
1070
     1
1002
}
  0
MTEXT
  5
23B4
330
1F
100
AcDbEntity
  8
Note
  6
Continuous
100
AcDbMText
 10
420.5755830699037
 20
141.3048242774503
 30
0.0
 40
7.0
 41
142.6066524516703
 46
0.0
 71
     1
 72
     5
  1
Острые края обработать с R0,5 
 73
     1
 44
1.0
1001
ACAD
1000
ACAD_MTEXT_COLUMN_INFO_BEGIN
1070
    75
1070
     2
1070
    79
1070
     0
1070
    76
1070
     1
1070
    78
1070
     0
1070
    48
1040
142.6066524516703
1070
    49
1040
35.0
1070
    50
1070
     1
1040
0.0
1000
ACAD_MTEXT_COLUMN_INFO_END
  0
MTEXT
  5
23B5
330
1F
100
AcDbEntity
  8
Note
  6
Continuous
100
AcDbMText
 10
746.3255830699036
 20
141.30482427745
 30
0.0
 40
7.0
 41
142.6066524516703
 46
0.0
 71
     1
 72
     5
  1
Острые края обработать с R0,5 
 73
     1
 44
1.0
1001
ACAD
1000
ACAD_MTEXT_COLUMN_INFO_BEGIN
1070
    75
1070
     2
1070
    79
1070
     0
1070
    76
1070
     1
1070
    78
1070
     0
1070
    48
1040
142.6066524516703
1070
    49
1040
35.0
1070
    50
1070
     1
1040
0.0
1000
ACAD_MTEXT_COLUMN_INFO_END
  0
LINE
  5
23B6
102
{ACAD_REACTORS
330
23F7
102
}
330
1F
100
AcDbEntity
  8
2 depth
  6
Continuous
370
    50
100
AcDbLine
 10
450.0
 20
-279.1697074563714
 30
0.0
 11
325.0
 21
-279.1697074563714
 31
0.0
  0
LINE
  5
23B7
102
{ACAD_REACTORS
330
23F7
102
}
330
1F
100
AcDbEntity
  8
2 depth
  6
Continuous
370
    50
100
AcDbLine
 10
450.0
 20
-343.1697074563714
 30
0.0
 11
325.0
 21
-343.1697074563714
 31
0.0
  0
LINE
  5
23B8
330
1F
100
AcDbEntity
  8
0
  6
Continuous
370
    50
100
AcDbLine
 10
325.0
 20
-343.1697074563714
 30
0.0
 11
325.0
 21
-279.1697074563714
 31
0.0
  0
LINE
  5
23B9
330
1F
100
AcDbEntity
  8
0
  6
Continuous
370
    50
100
AcDbLine
 10
450.0
 20
-343.1697074563714
 30
0.0
 11
450.0
 21
-279.1697074563714
 31
0.0
  0
CIRCLE
  5
23BA
330
1F
100
AcDbEntity
  8
0
  6
Continuous
100
AcDbCircle
 10
365.1
 20
-311.1697074563714
 30
0.0
 40
3.75
  0
CIRCLE
  5
23BB
330
1F
100
AcDbEntity
  8
0
  6
Continuous
100
AcDbCircle
 10
426.9
 20
-311.1697074563714
 30
0.0
 40
6.0
  0
LWPOLYLINE
  5
23BC
330
1F
100
AcDbEntity
  8
0
  6
Continuous
100
AcDbPolyline
 90
        4
 70
     1
 43
0.0
 10
409.6499999999999
 20
-313.6697074563714
 10
412.15
 20
-313.6697074563714
 10
412.15
 20
-308.6697074563714
 10
409.6499999999999
 20
-308.6697074563714
  0
LINE
  5
23BD
330
1F
100
AcDbEntity
  8
0
  6
Continuous
370
    50
100
AcDbLine
 10
328.0
 20
-239.8217074563714
 30
0.0
 11
447.0
 21
-239.8217074563714
 31
0.0
  0
ARC
  5
23BE
330
1F
100
AcDbEntity
  8
0
  6
Continuous
370
    50
100
AcDbCircle
 10
328.0
 20
-242.8217074563714
 30
0.0
 40
3.0
100
AcDbArc
 50
90.0
 51
180.0
  0
ARC
  5
23BF
330
1F
100
AcDbEntity
  8
0
  6
Continuous
370
    50
100
AcDbCircle
 10
447.0
 20
-242.8217074563714
 30
0.0
 40
3.0
100
AcDbArc
 50
0.0
 51
90.0
  0
LINE
  5
23C0
330
1F
100
AcDbEntity
  8
0
  6
Continuous
370
    50
100
AcDbLine
 10
450.0
 20
-242.8217074563714
 30
0.0
 11
450.0
 21
-275.8217074563714
 31
0.0
  0
LINE
  5
23C1
102
{ACAD_REACTORS
330
23F7
102
}
330
1F
100
AcDbEntity
  8
2 depth
  6
Continuous
370
    50
100
AcDbLine
 10
450.0
 20
-275.8217074563714
 30
0.0
 11
325.0
 21
-275.8217074563714
 31
0.0
  0
LINE
  5
23C2
330
1F
100
AcDbEntity
  8
0
  6
Continuous
370
    50
100
AcDbLine
 10
325.0
 20
-275.8217074563714
 30
0.0
 11
325.0
 21
-242.8217074563714
 31
0.0
  0
CIRCLE
  5
23C3
330
1F
100
AcDbEntity
  8
0
  6
Continuous
100
AcDbCircle
 10
387.5
 20
-258.8217074563714
 30
0.0
 40
3.75
  0
LWPOLYLINE
  5
23C4
330
1F
100
AcDbEntity
  8
0
  6
Continuous
100
AcDbPolyline
 90
        8
 70
     1
 43
0.0
 10
403.5
 20
-262.3217074563714
 10
403.5
 20
-262.3217074563714
 42
0.4142135623730951
 10
405.25
 20
-260.5717074563714
 10
405.25
 20
-257.0717074563714
 42
0.4142135623730951
 10
403.5
 20
-255.3217074563714
 10
403.5
 20
-255.3217074563714
 42
0.4142135623730951
 10
401.75
 20
-257.0717074563714
 10
401.75
 20
-260.5717074563714
 42
0.4142135623730951
  0
CIRCLE
  5
23C5
330
1F
100
AcDbEntity
  8
0
  6
Continuous
100
AcDbCircle
 10
337.5
 20
-258.4217074563714
 30
0.0
 40
1.5
  0
CIRCLE
  5
23C6
330
1F
100
AcDbEntity
  8
0
  6
Continuous
100
AcDbCircle
 10
437.5
 20
-258.4217074563714
 30
0.0
 40
1.5
  0
CIRCLE
  5
23C7
330
1F
100
AcDbEntity
  8
0
  6
Continuous
100
AcDbCircle
 10
337.5
 20
-258.4217074563714
 30
0.0
 40
3.0
  0
CIRCLE
  5
23C8
330
1F
100
AcDbEntity
  8
0
  6
Continuous
100
AcDbCircle
 10
437.5
 20
-258.4217074563714
 30
0.0
 40
3.0
  0
LINE
  5
23C9
330
1F
100
AcDbEntity
  8
0
  6
Continuous
370
    50
100
AcDbLine
 10
328.0
 20
-382.5177074563715
 30
0.0
 11
447.0
 21
-382.5177074563715
 31
0.0
  0
ARC
  5
23CA
330
1F
100
AcDbEntity
  8
0
  6
Continuous
370
    50
100
AcDbCircle
 10
328.0
 20
-379.5177074563715
 30
0.0
 40
3.0
100
AcDbArc
 50
180.0
 51
270.0
  0
ARC
  5
23CB
330
1F
100
AcDbEntity
  8
0
  6
Continuous
370
    50
100
AcDbCircle
 10
447.0
 20
-379.5177074563715
 30
0.0
 40
3.0
100
AcDbArc
 50
270.0
 51
0.0
  0
LINE
  5
23CC
330
1F
100
AcDbEntity
  8
0
  6
Continuous
370
    50
100
AcDbLine
 10
450.0
 20
-379.5177074563715
 30
0.0
 11
450.0
 21
-346.5177074563714
 31
0.0
  0
LINE
  5
23CD
102
{ACAD_REACTORS
330
23F7
102
}
330
1F
100
AcDbEntity
  8
2 depth
  6
Continuous
370
    50
100
AcDbLine
 10
450.0
 20
-346.5177074563714
 30
0.0
 11
325.0
 21
-346.5177074563714
 31
0.0
  0
LINE
  5
23CE
330
1F
100
AcDbEntity
  8
0
  6
Continuous
370
    50
100
AcDbLine
 10
325.0
 20
-346.5177074563714
 30
0.0
 11
325.0
 21
-379.5177074563715
 31
0.0
  0
CIRCLE
  5
23CF
330
1F
100
AcDbEntity
  8
0
  6
Continuous
100
AcDbCircle
 10
337.5
 20
-363.9177074563714
 30
0.0
 40
1.5
  0
CIRCLE
  5
23D0
330
1F
100
AcDbEntity
  8
0
  6
Continuous
100
AcDbCircle
 10
437.5
 20
-363.9177074563714
 30
0.0
 40
1.5
  0
CIRCLE
  5
23D1
330
1F
100
AcDbEntity
  8
0
  6
Continuous
100
AcDbCircle
 10
337.5
 20
-363.9177074563714
 30
0.0
 40
3.0
  0
CIRCLE
  5
23D2
330
1F
100
AcDbEntity
  8
0
  6
Continuous
100
AcDbCircle
 10
437.5
 20
-363.9177074563714
 30
0.0
 40
3.0
  0
LINE
  5
23D6
102
{ACAD_REACTORS
330
23F7
102
}
330
1F
100
AcDbEntity
  8
0
  6
Continuous
100
AcDbLine
 10
325.0
 20
-279.1697074563714
 30
0.0
 11
325.0
 21
-275.8217074563714
 31
0.0
  0
LINE
  5
23D7
102
{ACAD_REACTORS
330
23F7
102
}
330
1F
100
AcDbEntity
  8
0
  6
Continuous
100
AcDbLine
 10
450.0
 20
-279.1697074563714
 30
0.0
 11
450.0
 21
-275.8217074563714
 31
0.0
  0
LINE
  5
23D8
102
{ACAD_REACTORS
330
23F7
102
}
330
1F
100
AcDbEntity
  8
0
  6
Continuous
100
AcDbLine
 10
325.0
 20
-343.1697074563714
 30
0.0
 11
325.0
 21
-346.5177074563714
 31
0.0
  0
LINE
  5
23D9
102
{ACAD_REACTORS
330
23F7
102
}
330
1F
100
AcDbEntity
  8
0
  6
Continuous
100
AcDbLine
 10
450.0
 20
-343.1697074563714
 30
0.0
 11
450.0
 21
-346.5177074563714
 31
0.0
  0
LINE
  5
23DA
102
{ACAD_REACTORS
330
23F7
102
}
330
1F
100
AcDbEntity
  8
2 depth
  6
JIS_09_08
100
AcDbLine
 10
325.0
 20
-277.4957074563714
 30
0.0
 11
450.0
 21
-277.4957074563714
 31
0.0
  0
LINE
  5
23DB
102
{ACAD_REACTORS
330
23F7
102
}
330
1F
100
AcDbEntity
  8
2 depth
  6
JIS_09_08
100
AcDbLine
 10
325.0
 20
-344.8437074563714
 30
0.0
 11
450.0
 21
-344.8437074563714
 31
0.0
  0
HATCH
  5
23F7
330
1F
100
AcDbEntity
  8
2 depth
  6
Continuous
100
AcDbHatch
 10
0.0
 20
0.0
 30
0.0
210
0.0
220
0.0
230
1.0
  2
ANSI31
 70
     0
 71
     1
 91
        4
 92
        7
 72
     0
 73
     1
 93
        4
 10
450.0
 20
-275.8217074563714
 10
325.0
 20
-275.8217074563714
 10
325.0
 20
-277.4957074563714
 10
450.0
 20
-277.4957074563714
 97
        4
330
23C1
330
23D6
330
23DA
330
23D7
 92
        7
 72
     0
 73
     1
 93
        4
 10
450.0
 20
-277.4957074563714
 10
325.0
 20
-277.4957074563714
 10
325.0
 20
-279.1697074563714
 10
450.0
 20
-279.1697074563714
 97
        4
330
23E1
330
23D6
330
23B6
330
23D7
 92
        7
 72
     0
 73
     1
 93
        4
 10
450.0
 20
-343.1697074563714
 10
325.0
 20
-343.1697074563714
 10
325.0
 20
-344.8437074563714
 10
450.0
 20
-344.8437074563714
 97
        4
330
23B7
330
23D8
330
23DB
330
23D9
 92
        7
 72
     0
 73
     1
 93
        4
 10
450.0
 20
-344.8437074563714
 10
325.0
 20
-344.8437074563714
 10
325.0
 20
-346.5177074563714
 10
450.0
 20
-346.5177074563714
 97
        4
330
23ED
330
23D8
330
23CD
330
23D9
 75
     1
 76
     1
 52
0.0
 41
1.0
 77
     0
 78
     1
 53
45.0
 43
0.0
 44
0.0
 45
-2.245064030267287
 46
2.245064030267288
 79
     0
 47
0.1603239708358124
 98
        4
 10
340.0323729072838
 20
-276.9201372196091
 10
337.4657519280954
 20
-278.523376304292
 10
342.1177543158624
 20
-344.0958807579232
 10
340.9948570164715
 20
-345.5387970597943
1001
GradientColor1ACI
1070
     5
1001
GradientColor2ACI
1070
     2
1001
ACAD
1010
0.0
1020
0.0
1030
0.0
  0
LINE
  5
2414
330
1F
100
AcDbEntity
  8
0
  6
Continuous
370
    50
100
AcDbLine
 10
619.7679999999992
 20
-276.669839609415
 30
0.0
 11
621.5679999999991
 21
-276.669839609415
 31
0.0
  0
ARC
  5
2415
330
1F
100
AcDbEntity
  8
0
  6
Continuous
370
    50
100
AcDbCircle
 10
619.7679999999992
 20
-277.8698396094149
 30
0.0
 40
1.199999999999999
100
AcDbArc
 50
90.0
 51
180.0
  0
LINE
  5
2417
102
{ACAD_REACTORS
330
249F
102
}
330
1F
100
AcDbEntity
  8
2 depth
  6
Continuous
370
    50
100
AcDbLine
 10
653.7679999999992
 20
-309.869839609415
 30
0.0
 11
653.7679999999992
 21
-276.6698396094149
 31
0.0
  0
LINE
  5
2418
330
1F
100
AcDbEntity
  8
0
  6
Continuous
370
    50
100
AcDbLine
 10
618.5679999999991
 20
-309.869839609415
 30
0.0
 11
618.5679999999991
 21
-277.8698396094149
 31
0.0
  0
LINE
  5
2421
330
1F
100
AcDbEntity
  8
0
  6
Continuous
100
AcDbLine
 10
652.7679999999992
 20
-276.6698396094149
 30
0.0
 11
652.7679999999992
 21
-278.6698396094149
 31
0.0
  0
LINE
  5
2425
330
1F
100
AcDbEntity
  8
0
  6
Continuous
100
AcDbLine
 10
621.5679999999991
 20
-278.6698396094149
 30
0.0
 11
621.5679999999991
 21
-276.6698396094149
 31
0.0
  0
LINE
  5
242B
330
1F
100
AcDbEntity
  8
0
  6
Continuous
370
    50
100
AcDbLine
 10
712.4999999999992
 20
-343.0698396094149
 30
0.0
 11
655.9999999999993
 21
-343.0698396094149
 31
0.0
  0
LINE
  5
242C
330
1F
100
AcDbEntity
  8
0
  6
Continuous
370
    50
100
AcDbLine
 10
712.4999999999992
 20
-276.6698396094149
 30
0.0
 11
655.9999999999992
 21
-276.6698396094149
 31
0.0
  0
LINE
  5
242D
102
{ACAD_REACTORS
330
249F
102
}
330
1F
100
AcDbEntity
  8
2 depth
  6
Continuous
370
    50
100
AcDbLine
 10
655.9999999999992
 20
-276.6698396094149
 30
0.0
 11
655.9999999999993
 21
-343.0698396094149
 31
0.0
  0
LINE
  5
242F
102
{ACAD_REACTORS
330
249F
102
}
330
1F
100
AcDbEntity
  8
0
  6
Continuous
100
AcDbLine
 10
653.7679999999992
 20
-276.6698396094149
 30
0.0
 11
655.9999999999992
 21
-276.6698396094149
 31
0.0
  0
LINE
  5
2430
330
1F
100
AcDbEntity
  8
0
  6
Continuous
100
AcDbLine
 10
652.7679999999992
 20
-278.6698396094149
 30
0.0
 11
652.7179999999993
 21
-278.6698396094149
 31
0.0
  0
LINE
  5
2431
330
1F
100
AcDbEntity
  8
0
  6
Continuous
370
    50
100
AcDbLine
 10
652.7679999999992
 20
-276.6698396094148
 30
0.0
 11
653.7679999999992
 21
-276.6698396094148
 31
0.0
  0
LINE
  5
2432
330
1F
100
AcDbEntity
  8
0
  6
Continuous
100
AcDbLine
 10
621.6179999999991
 20
-278.6698396094149
 30
0.0
 11
621.6179999999991
 21
-276.4378396094149
 31
0.0
  0
LINE
  5
2433
330
1F
100
AcDbEntity
  8
0
  6
Continuous
100
AcDbLine
 10
621.5679999999991
 20
-278.6698396094149
 30
0.0
 11
621.6179999999991
 21
-278.6698396094149
 31
0.0
  0
LINE
  5
2434
330
1F
100
AcDbEntity
  8
2 depth
  6
Continuous
370
    50
100
AcDbLine
 10
621.6179999999991
 20
-278.669839609415
 30
0.0
 11
652.7179999999993
 21
-278.6698396094148
 31
0.0
  0
LINE
  5
245B
330
1F
100
AcDbEntity
  8
0
  6
Continuous
100
AcDbLine
 10
652.7179999999994
 20
-276.4378396094149
 30
0.0
 11
652.7179999999994
 21
-267.937839609415
 31
0.0
  0
LINE
  5
245C
330
1F
100
AcDbEntity
  8
0
  6
Continuous
100
AcDbLine
 10
621.6179999999991
 20
-276.4378396094149
 30
0.0
 11
621.6179999999992
 21
-267.937839609415
 31
0.0
  0
ARC
  5
245D
330
1F
100
AcDbEntity
  8
0
  6
Continuous
100
AcDbCircle
 10
623.6179999999992
 20
-267.937839609415
 30
0.0
 40
2.0
100
AcDbArc
 50
90.0
 51
180.0
  0
ARC
  5
245F
330
1F
100
AcDbEntity
  8
0
  6
Continuous
100
AcDbCircle
 10
650.7179999999993
 20
-267.937839609415
 30
0.0
 40
2.0
100
AcDbArc
 50
0.0
 51
90.0
  0
CIRCLE
  5
2460
330
1F
100
AcDbEntity
  8
0
  6
Continuous
100
AcDbCircle
 10
637.1679999999993
 20
-269.937839609415
 30
0.0
 40
1.25
  0
ARC
  5
2461
330
1F
100
AcDbEntity
  8
0
  6
Continuous
100
AcDbCircle
 10
637.1679999999993
 20
-269.937839609415
 30
0.0
 40
1.499999999999999
100
AcDbArc
 50
170.0000000000014
 51
79.99999999999815
  0
LINE
  5
2465
330
1F
100
AcDbEntity
  8
0
  6
Continuous
100
AcDbLine
 10
623.6179999999992
 20
-265.937839609415
 30
0.0
 11
650.7179999999993
 21
-265.937839609415
 31
0.0
  0
LINE
  5
2466
330
1F
100
AcDbEntity
  8
2 depth
  6
Continuous
100
AcDbLine
 10
621.6179999999992
 20
-276.4378396094149
 30
0.0
 11
652.7179999999994
 21
-276.4378396094149
 31
0.0
  0
LINE
  5
2468
330
1F
100
AcDbEntity
  8
2 depth
  6
JIS_09_08
100
AcDbLine
 10
621.6179999999991
 20
-277.5538396094149
 30
0.0
 11
652.7179999999993
 21
-277.5538396094149
 31
0.0
  0
HATCH
  5
2476
330
1F
100
AcDbEntity
  8
2 depth
  6
Continuous
100
AcDbHatch
 10
0.0
 20
0.0
 30
0.0
210
0.0
220
0.0
230
1.0
  2
ANSI31
 70
     0
 71
     0
 91
        2
 92
        7
 72
     0
 73
     1
 93
        4
 10
652.7179999999993
 20
-276.4378396094149
 10
621.6179999999991
 20
-276.4378396094149
 10
621.6179999999991
 20
-277.5538396094149
 10
652.7179999999993
 20
-277.5538396094149
 97
        0
 92
        7
 72
     0
 73
     1
 93
        4
 10
652.7179999999993
 20
-277.5538396094149
 10
621.6179999999991
 20
-277.5538396094149
 10
621.6179999999991
 20
-278.669839609415
 10
652.7179999999993
 20
-278.6698396094148
 97
        0
 75
     1
 76
     1
 52
0.0
 41
1.0
 77
     0
 78
     1
 53
45.0
 43
23.43146902247247
 44
-0.0000000000000568
 45
-2.245064030267287
 46
2.245064030267288
 79
     0
 47
0.1205778275987168
 98
        2
 10
640.9550402437949
 20
-277.3769080574098
 10
640.9550402437949
 20
-278.0552604028622
1001
GradientColor1ACI
1070
     5
1001
GradientColor2ACI
1070
     2
1001
ACAD
1010
0.0
1020
0.0
1030
0.0
  0
LINE
  5
2478
330
1F
100
AcDbEntity
  8
0
  6
Continuous
370
    50
100
AcDbLine
 10
619.7679999999992
 20
-343.0698396094149
 30
0.0
 11
621.5679999999991
 21
-343.0698396094149
 31
0.0
  0
HATCH
  5
2479
330
1F
100
AcDbEntity
  8
2 depth
  6
Continuous
100
AcDbHatch
 10
0.0
 20
0.0
 30
0.0
210
0.0
220
0.0
230
1.0
  2
ANSI31
 70
     0
 71
     0
 91
        2
 92
        7
 72
     0
 73
     1
 93
        4
 10
652.7179999999993
 20
-343.301839609415
 10
621.6179999999991
 20
-343.301839609415
 10
621.6179999999991
 20
-342.1858396094151
 10
652.7179999999993
 20
-342.1858396094151
 97
        0
 92
        7
 72
     0
 73
     1
 93
        4
 10
652.7179999999993
 20
-342.1858396094151
 10
621.6179999999991
 20
-342.1858396094151
 10
621.6179999999991
 20
-341.0698396094149
 10
652.7179999999993
 20
-341.0698396094151
 97
        0
 75
     1
 76
     1
 52
0.0
 41
1.0
 77
     0
 78
     1
 53
45.0
 43
23.43146902247247
 44
-0.0000000000000568
 45
-2.245064030267287
 46
2.245064030267288
 79
     0
 47
0.1205778275987168
 98
        2
 10
640.9550402437949
 20
-342.3627711614201
 10
640.9550402437949
 20
-341.6844188159677
1001
GradientColor1ACI
1070
     5
1001
GradientColor2ACI
1070
     2
1001
ACAD
1010
0.0
1020
0.0
1030
0.0
  0
LINE
  5
247A
330
1F
100
AcDbEntity
  8
2 depth
  6
Continuous
370
    50
100
AcDbLine
 10
621.6179999999991
 20
-341.0698396094149
 30
0.0
 11
652.7179999999993
 21
-341.0698396094151
 31
0.0
  0
LINE
  5
247B
330
1F
100
AcDbEntity
  8
0
  6
Continuous
370
    50
100
AcDbLine
 10
652.7679999999992
 20
-343.0698396094151
 30
0.0
 11
653.7679999999992
 21
-343.0698396094151
 31
0.0
  0
ARC
  5
247C
330
1F
100
AcDbEntity
  8
0
  6
Continuous
370
    50
100
AcDbCircle
 10
619.7679999999992
 20
-341.8698396094149
 30
0.0
 40
1.199999999999999
100
AcDbArc
 50
180.0
 51
270.0
  0
LINE
  5
247D
102
{ACAD_REACTORS
330
249F
102
}
330
1F
100
AcDbEntity
  8
2 depth
  6
Continuous
370
    50
100
AcDbLine
 10
653.7679999999992
 20
-309.869839609415
 30
0.0
 11
653.7679999999992
 21
-343.069839609415
 31
0.0
  0
LINE
  5
247E
330
1F
100
AcDbEntity
  8
0
  6
Continuous
370
    50
100
AcDbLine
 10
618.5679999999991
 20
-309.869839609415
 30
0.0
 11
618.5679999999991
 21
-341.8698396094149
 31
0.0
  0
LINE
  5
247F
330
1F
100
AcDbEntity
  8
0
  6
Continuous
100
AcDbLine
 10
652.7679999999992
 20
-343.069839609415
 30
0.0
 11
652.7679999999992
 21
-341.069839609415
 31
0.0
  0
LINE
  5
2480
330
1F
100
AcDbEntity
  8
0
  6
Continuous
100
AcDbLine
 10
621.5679999999991
 20
-341.069839609415
 30
0.0
 11
621.5679999999991
 21
-343.069839609415
 31
0.0
  0
LINE
  5
2481
330
1F
100
AcDbEntity
  8
0
  6
Continuous
100
AcDbLine
 10
652.7179999999993
 20
-343.301839609415
 30
0.0
 11
652.7179999999993
 21
-341.069839609415
 31
0.0
  0
LINE
  5
2482
330
1F
100
AcDbEntity
  8
0
  6
Continuous
100
AcDbLine
 10
652.7679999999992
 20
-341.069839609415
 30
0.0
 11
652.7179999999993
 21
-341.069839609415
 31
0.0
  0
LINE
  5
2483
330
1F
100
AcDbEntity
  8
0
  6
Continuous
100
AcDbLine
 10
621.6179999999991
 20
-341.069839609415
 30
0.0
 11
621.6179999999991
 21
-343.301839609415
 31
0.0
  0
LINE
  5
2484
330
1F
100
AcDbEntity
  8
0
  6
Continuous
100
AcDbLine
 10
621.5679999999991
 20
-341.069839609415
 30
0.0
 11
621.6179999999991
 21
-341.069839609415
 31
0.0
  0
LINE
  5
2485
330
1F
100
AcDbEntity
  8
0
  6
Continuous
100
AcDbLine
 10
652.7179999999994
 20
-343.301839609415
 30
0.0
 11
652.7179999999994
 21
-351.8018396094149
 31
0.0
  0
LINE
  5
2486
330
1F
100
AcDbEntity
  8
0
  6
Continuous
100
AcDbLine
 10
621.6179999999991
 20
-343.301839609415
 30
0.0
 11
621.6179999999992
 21
-351.8018396094149
 31
0.0
  0
ARC
  5
2487
330
1F
100
AcDbEntity
  8
0
  6
Continuous
100
AcDbCircle
 10
623.6179999999992
 20
-351.8018396094149
 30
0.0
 40
2.0
100
AcDbArc
 50
180.0
 51
270.0
  0
ARC
  5
2488
330
1F
100
AcDbEntity
  8
0
  6
Continuous
100
AcDbCircle
 10
650.7179999999993
 20
-351.8018396094149
 30
0.0
 40
2.0
100
AcDbArc
 50
270.0
 51
0.0
  0
CIRCLE
  5
2489
330
1F
100
AcDbEntity
  8
0
  6
Continuous
100
AcDbCircle
 10
637.1679999999993
 20
-349.8018396094149
 30
0.0
 40
1.25
  0
ARC
  5
248A
330
1F
100
AcDbEntity
  8
0
  6
Continuous
100
AcDbCircle
 10
637.1679999999993
 20
-349.8018396094149
 30
0.0
 40
1.499999999999999
100
AcDbArc
 50
280.0000000000018
 51
189.9999999999985
  0
LINE
  5
248B
330
1F
100
AcDbEntity
  8
0
  6
Continuous
100
AcDbLine
 10
623.6179999999992
 20
-353.8018396094149
 30
0.0
 11
650.7179999999993
 21
-353.8018396094149
 31
0.0
  0
LINE
  5
248C
330
1F
100
AcDbEntity
  8
2 depth
  6
Continuous
100
AcDbLine
 10
621.6179999999992
 20
-343.301839609415
 30
0.0
 11
652.7179999999994
 21
-343.301839609415
 31
0.0
  0
LINE
  5
248D
330
1F
100
AcDbEntity
  8
2 depth
  6
JIS_09_08
100
AcDbLine
 10
621.6179999999991
 20
-342.1858396094151
 30
0.0
 11
652.7179999999993
 21
-342.1858396094151
 31
0.0
  0
LINE
  5
248E
330
1F
100
AcDbEntity
  8
0
  6
Continuous
100
AcDbLine
 10
652.7179999999994
 20
-276.4378396094148
 30
0.0
 11
652.7179999999994
 21
-278.6698396094148
 31
0.0
  0
LINE
  5
248F
102
{ACAD_REACTORS
330
249F
102
}
330
1F
100
AcDbEntity
  8
0
  6
Continuous
100
AcDbLine
 10
653.7679999999992
 20
-343.0698396094149
 30
0.0
 11
655.9999999999992
 21
-343.0698396094149
 31
0.0
  0
LINE
  5
2490
102
{ACAD_REACTORS
330
249F
102
}
330
1F
100
AcDbEntity
  8
2 depth
  6
JIS_09_08
100
AcDbLine
 10
654.8839999999991
 20
-343.0698396094149
 30
0.0
 11
654.8839999999991
 21
-276.6698396094151
 31
0.0
  0
HATCH
  5
249F
330
1F
100
AcDbEntity
  8
2 depth
  6
Continuous
100
AcDbHatch
 10
0.0
 20
0.0
 30
0.0
210
0.0
220
0.0
230
1.0
  2
ANSI31
 70
     0
 71
     1
 91
        2
 92
        7
 72
     0
 73
     1
 93
        5
 10
654.8839999999991
 20
-276.6698396094149
 10
653.7679999999992
 20
-276.6698396094149
 10
653.7679999999992
 20
-309.869839609415
 10
653.7679999999992
 20
-343.0698396094149
 10
654.8839999999991
 20
-343.0698396094149
 97
        5
330
242F
330
2417
330
247D
330
248F
330
2490
 92
        7
 72
     0
 73
     1
 93
        4
 10
655.9999999999992
 20
-276.6698396094149
 10
654.8839999999991
 20
-276.6698396094149
 10
654.8839999999991
 20
-343.0698396094149
 10
655.9999999999993
 20
-343.0698396094149
 97
        4
330
242F
330
2498
330
248F
330
242D
 75
     1
 76
     1
 52
0.0
 41
1.0
 77
     0
 78
     1
 53
45.0
 43
0.0
 44
0.0
 45
-2.245064030267287
 46
2.245064030267288
 79
     0
 47
0.1411753165856097
 98
        2
 10
654.1434486974849
 20
-300.9911912068314
 10
655.1322278381904
 20
-300.4264920125952
1001
GradientColor1ACI
1070
     5
1001
GradientColor2ACI
1070
     2
1001
ACAD
1010
0.0
1020
0.0
1030
0.0
  0
LINE
  5
24A1
330
1F
100
AcDbEntity
  8
0
  6
Continuous
370
    50
100
AcDbLine
 10
805.2319999999991
 20
-276.669839609415
 30
0.0
 11
803.4319999999992
 21
-276.669839609415
 31
0.0
  0
HATCH
  5
24A2
330
1F
100
AcDbEntity
  8
2 depth
  6
Continuous
100
AcDbHatch
 10
0.0
 20
0.0
 30
0.0
210
0.0
220
0.0
230
1.0
  2
ANSI31
 70
     0
 71
     0
 91
        2
 92
        7
 72
     0
 73
     1
 93
        4
 10
772.2819999999991
 20
-276.4378396094149
 10
803.3819999999993
 20
-276.4378396094149
 10
803.3819999999993
 20
-277.5538396094149
 10
772.2819999999991
 20
-277.5538396094149
 97
        0
 92
        7
 72
     0
 73
     1
 93
        4
 10
772.2819999999991
 20
-277.5538396094149
 10
803.3819999999993
 20
-277.5538396094149
 10
803.3819999999993
 20
-278.669839609415
 10
772.2819999999991
 20
-278.6698396094148
 97
        0
 75
     1
 76
     1
 52
0.0
 41
1.0
 77
     0
 78
     1
 53
45.0
 43
23.43146902247247
 44
-0.0000000000000568
 45
-2.245064030267287
 46
2.245064030267288
 79
     0
 47
0.1205778275987168
 98
        2
 10
784.0449597562034
 20
-277.3769080574098
 10
784.0449597562034
 20
-278.0552604028622
1001
GradientColor1ACI
1070
     5
1001
GradientColor2ACI
1070
     2
1001
ACAD
1010
0.0
1020
0.0
1030
0.0
  0
LINE
  5
24A3
330
1F
100
AcDbEntity
  8
2 depth
  6
Continuous
370
    50
100
AcDbLine
 10
803.3819999999993
 20
-278.669839609415
 30
0.0
 11
772.2819999999991
 21
-278.6698396094148
 31
0.0
  0
LINE
  5
24A4
330
1F
100
AcDbEntity
  8
0
  6
Continuous
370
    50
100
AcDbLine
 10
772.2319999999991
 20
-276.6698396094148
 30
0.0
 11
771.2319999999992
 21
-276.6698396094148
 31
0.0
  0
ARC
  5
24A5
330
1F
100
AcDbEntity
  8
0
  6
Continuous
370
    50
100
AcDbCircle
 10
805.2319999999991
 20
-277.8698396094149
 30
0.0
 40
1.199999999999999
100
AcDbArc
 50
0.000000000000007
 51
90.0
  0
HATCH
  5
24A6
330
1F
100
AcDbEntity
  8
2 depth
  6
Continuous
100
AcDbHatch
 10
0.0
 20
0.0
 30
0.0
210
0.0
220
0.0
230
1.0
  2
ANSI31
 70
     0
 71
     0
 91
        2
 92
        7
 72
     0
 73
     1
 93
        5
 10
770.1159999999993
 20
-276.6698396094149
 10
771.2319999999992
 20
-276.6698396094149
 10
771.2319999999992
 20
-309.869839609415
 10
771.2319999999992
 20
-343.0698396094149
 10
770.1159999999993
 20
-343.0698396094149
 97
        0
 92
        7
 72
     0
 73
     1
 93
        4
 10
768.9999999999992
 20
-276.6698396094149
 10
770.1159999999993
 20
-276.6698396094149
 10
770.1159999999993
 20
-343.0698396094149
 10
768.9999999999991
 20
-343.0698396094149
 97
        0
 75
     1
 76
     1
 52
0.0
 41
1.0
 77
     0
 78
     1
 53
45.0
 43
0.0
 44
0.0
 45
-2.245064030267287
 46
2.245064030267288
 79
     0
 47
0.1411753165856097
 98
        2
 10
770.8565513025135
 20
-300.9911912068314
 10
769.867772161808
 20
-300.4264920125952
1001
GradientColor1ACI
1070
     5
1001
GradientColor2ACI
1070
     2
1001
ACAD
1010
0.0
1020
0.0
1030
0.0
  0
LINE
  5
24A7
330
1F
100
AcDbEntity
  8
2 depth
  6
Continuous
370
    50
100
AcDbLine
 10
771.2319999999992
 20
-309.869839609415
 30
0.0
 11
771.2319999999992
 21
-276.6698396094149
 31
0.0
  0
LINE
  5
24A8
330
1F
100
AcDbEntity
  8
0
  6
Continuous
370
    50
100
AcDbLine
 10
806.4319999999991
 20
-309.869839609415
 30
0.0
 11
806.4319999999991
 21
-277.8698396094149
 31
0.0
  0
LINE
  5
24A9
330
1F
100
AcDbEntity
  8
0
  6
Continuous
100
AcDbLine
 10
772.2319999999991
 20
-276.6698396094149
 30
0.0
 11
772.2319999999991
 21
-278.6698396094149
 31
0.0
  0
LINE
  5
24AA
330
1F
100
AcDbEntity
  8
0
  6
Continuous
100
AcDbLine
 10
803.4319999999992
 20
-278.6698396094149
 30
0.0
 11
803.4319999999992
 21
-276.6698396094149
 31
0.0
  0
LINE
  5
24AB
330
1F
100
AcDbEntity
  8
0
  6
Continuous
370
    50
100
AcDbLine
 10
712.4999999999992
 20
-343.0698396094149
 30
0.0
 11
768.9999999999991
 21
-343.0698396094149
 31
0.0
  0
LINE
  5
24AC
330
1F
100
AcDbEntity
  8
0
  6
Continuous
370
    50
100
AcDbLine
 10
712.4999999999992
 20
-276.6698396094149
 30
0.0
 11
768.9999999999992
 21
-276.6698396094149
 31
0.0
  0
LINE
  5
24AD
330
1F
100
AcDbEntity
  8
2 depth
  6
Continuous
370
    50
100
AcDbLine
 10
768.9999999999992
 20
-276.6698396094149
 30
0.0
 11
768.9999999999991
 21
-343.0698396094149
 31
0.0
  0
LINE
  5
24AE
330
1F
100
AcDbEntity
  8
0
  6
Continuous
100
AcDbLine
 10
771.2319999999992
 20
-276.6698396094149
 30
0.0
 11
768.9999999999992
 21
-276.6698396094149
 31
0.0
  0
LINE
  5
24AF
330
1F
100
AcDbEntity
  8
0
  6
Continuous
100
AcDbLine
 10
772.2319999999991
 20
-278.6698396094149
 30
0.0
 11
772.2819999999991
 21
-278.6698396094149
 31
0.0
  0
LINE
  5
24B0
330
1F
100
AcDbEntity
  8
0
  6
Continuous
100
AcDbLine
 10
803.3819999999993
 20
-278.6698396094149
 30
0.0
 11
803.3819999999993
 21
-276.4378396094149
 31
0.0
  0
LINE
  5
24B1
330
1F
100
AcDbEntity
  8
0
  6
Continuous
100
AcDbLine
 10
803.4319999999992
 20
-278.6698396094149
 30
0.0
 11
803.3819999999993
 21
-278.6698396094149
 31
0.0
  0
LINE
  5
24B2
330
1F
100
AcDbEntity
  8
0
  6
Continuous
100
AcDbLine
 10
772.281999999999
 20
-276.4378396094149
 30
0.0
 11
772.281999999999
 21
-267.937839609415
 31
0.0
  0
LINE
  5
24B3
330
1F
100
AcDbEntity
  8
0
  6
Continuous
100
AcDbLine
 10
803.3819999999993
 20
-276.4378396094149
 30
0.0
 11
803.3819999999991
 21
-267.937839609415
 31
0.0
  0
ARC
  5
24B4
330
1F
100
AcDbEntity
  8
0
  6
Continuous
100
AcDbCircle
 10
801.3819999999991
 20
-267.937839609415
 30
0.0
 40
2.0
100
AcDbArc
 50
0.000000000000007
 51
90.0
  0
ARC
  5
24B5
330
1F
100
AcDbEntity
  8
0
  6
Continuous
100
AcDbCircle
 10
774.281999999999
 20
-267.937839609415
 30
0.0
 40
2.0
100
AcDbArc
 50
90.0
 51
180.0
  0
CIRCLE
  5
24B6
330
1F
100
AcDbEntity
  8
0
  6
Continuous
100
AcDbCircle
 10
787.831999999999
 20
-269.937839609415
 30
0.0
 40
1.25
  0
ARC
  5
24B7
330
1F
100
AcDbEntity
  8
0
  6
Continuous
100
AcDbCircle
 10
787.831999999999
 20
-269.937839609415
 30
0.0
 40
1.499999999999999
100
AcDbArc
 50
100.000000000005
 51
9.999999999997484
  0
LINE
  5
24B8
330
1F
100
AcDbEntity
  8
0
  6
Continuous
100
AcDbLine
 10
801.3819999999991
 20
-265.937839609415
 30
0.0
 11
774.281999999999
 21
-265.937839609415
 31
0.0
  0
LINE
  5
24B9
330
1F
100
AcDbEntity
  8
2 depth
  6
Continuous
100
AcDbLine
 10
803.3819999999991
 20
-276.4378396094149
 30
0.0
 11
772.281999999999
 21
-276.4378396094149
 31
0.0
  0
LINE
  5
24BA
330
1F
100
AcDbEntity
  8
2 depth
  6
JIS_09_08
100
AcDbLine
 10
803.3819999999993
 20
-277.5538396094149
 30
0.0
 11
772.2819999999991
 21
-277.5538396094149
 31
0.0
  0
LINE
  5
24BB
330
1F
100
AcDbEntity
  8
0
  6
Continuous
370
    50
100
AcDbLine
 10
805.2319999999991
 20
-343.0698396094149
 30
0.0
 11
803.4319999999992
 21
-343.0698396094149
 31
0.0
  0
HATCH
  5
24BC
330
1F
100
AcDbEntity
  8
2 depth
  6
Continuous
100
AcDbHatch
 10
0.0
 20
0.0
 30
0.0
210
0.0
220
0.0
230
1.0
  2
ANSI31
 70
     0
 71
     0
 91
        2
 92
        7
 72
     0
 73
     1
 93
        4
 10
772.2819999999991
 20
-343.301839609415
 10
803.3819999999993
 20
-343.301839609415
 10
803.3819999999993
 20
-342.1858396094151
 10
772.2819999999991
 20
-342.1858396094151
 97
        0
 92
        7
 72
     0
 73
     1
 93
        4
 10
772.2819999999991
 20
-342.1858396094151
 10
803.3819999999993
 20
-342.1858396094151
 10
803.3819999999993
 20
-341.0698396094149
 10
772.2819999999991
 20
-341.0698396094151
 97
        0
 75
     1
 76
     1
 52
0.0
 41
1.0
 77
     0
 78
     1
 53
45.0
 43
23.43146902247247
 44
-0.0000000000000568
 45
-2.245064030267287
 46
2.245064030267288
 79
     0
 47
0.1205778275987168
 98
        2
 10
784.0449597562034
 20
-342.3627711614201
 10
784.0449597562034
 20
-341.6844188159677
1001
GradientColor1ACI
1070
     5
1001
GradientColor2ACI
1070
     2
1001
ACAD
1010
0.0
1020
0.0
1030
0.0
  0
LINE
  5
24BD
330
1F
100
AcDbEntity
  8
2 depth
  6
Continuous
370
    50
100
AcDbLine
 10
803.3819999999993
 20
-341.0698396094149
 30
0.0
 11
772.2819999999991
 21
-341.0698396094151
 31
0.0
  0
LINE
  5
24BE
330
1F
100
AcDbEntity
  8
0
  6
Continuous
370
    50
100
AcDbLine
 10
772.2319999999991
 20
-343.0698396094151
 30
0.0
 11
771.2319999999992
 21
-343.0698396094151
 31
0.0
  0
ARC
  5
24BF
330
1F
100
AcDbEntity
  8
0
  6
Continuous
370
    50
100
AcDbCircle
 10
805.2319999999991
 20
-341.8698396094149
 30
0.0
 40
1.199999999999999
100
AcDbArc
 50
270.0
 51
0.000000000000007
  0
LINE
  5
24C0
330
1F
100
AcDbEntity
  8
2 depth
  6
Continuous
370
    50
100
AcDbLine
 10
771.2319999999992
 20
-309.869839609415
 30
0.0
 11
771.2319999999992
 21
-343.069839609415
 31
0.0
  0
LINE
  5
24C1
330
1F
100
AcDbEntity
  8
0
  6
Continuous
370
    50
100
AcDbLine
 10
806.4319999999991
 20
-309.869839609415
 30
0.0
 11
806.4319999999991
 21
-341.8698396094149
 31
0.0
  0
LINE
  5
24C2
330
1F
100
AcDbEntity
  8
0
  6
Continuous
100
AcDbLine
 10
772.2319999999991
 20
-343.069839609415
 30
0.0
 11
772.2319999999991
 21
-341.069839609415
 31
0.0
  0
LINE
  5
24C3
330
1F
100
AcDbEntity
  8
0
  6
Continuous
100
AcDbLine
 10
803.4319999999992
 20
-341.069839609415
 30
0.0
 11
803.4319999999992
 21
-343.069839609415
 31
0.0
  0
LINE
  5
24C4
330
1F
100
AcDbEntity
  8
0
  6
Continuous
100
AcDbLine
 10
772.2819999999991
 20
-343.301839609415
 30
0.0
 11
772.2819999999991
 21
-341.069839609415
 31
0.0
  0
LINE
  5
24C5
330
1F
100
AcDbEntity
  8
0
  6
Continuous
100
AcDbLine
 10
772.2319999999991
 20
-341.069839609415
 30
0.0
 11
772.2819999999991
 21
-341.069839609415
 31
0.0
  0
LINE
  5
24C6
330
1F
100
AcDbEntity
  8
0
  6
Continuous
100
AcDbLine
 10
803.3819999999993
 20
-341.069839609415
 30
0.0
 11
803.3819999999993
 21
-343.301839609415
 31
0.0
  0
LINE
  5
24C7
330
1F
100
AcDbEntity
  8
0
  6
Continuous
100
AcDbLine
 10
803.4319999999992
 20
-341.069839609415
 30
0.0
 11
803.3819999999993
 21
-341.069839609415
 31
0.0
  0
LINE
  5
24C8
330
1F
100
AcDbEntity
  8
0
  6
Continuous
100
AcDbLine
 10
772.281999999999
 20
-343.301839609415
 30
0.0
 11
772.281999999999
 21
-351.8018396094149
 31
0.0
  0
LINE
  5
24C9
330
1F
100
AcDbEntity
  8
0
  6
Continuous
100
AcDbLine
 10
803.3819999999993
 20
-343.301839609415
 30
0.0
 11
803.3819999999991
 21
-351.8018396094149
 31
0.0
  0
ARC
  5
24CA
330
1F
100
AcDbEntity
  8
0
  6
Continuous
100
AcDbCircle
 10
801.3819999999991
 20
-351.8018396094149
 30
0.0
 40
2.0
100
AcDbArc
 50
270.0
 51
0.000000000000007
  0
ARC
  5
24CB
330
1F
100
AcDbEntity
  8
0
  6
Continuous
100
AcDbCircle
 10
774.281999999999
 20
-351.8018396094149
 30
0.0
 40
2.0
100
AcDbArc
 50
180.0
 51
270.0
  0
CIRCLE
  5
24CC
330
1F
100
AcDbEntity
  8
0
  6
Continuous
100
AcDbCircle
 10
787.831999999999
 20
-349.8018396094149
 30
0.0
 40
1.25
  0
ARC
  5
24CD
330
1F
100
AcDbEntity
  8
0
  6
Continuous
100
AcDbCircle
 10
787.831999999999
 20
-349.8018396094149
 30
0.0
 40
1.499999999999999
100
AcDbArc
 50
350.0000000000026
 51
259.9999999999949
  0
LINE
  5
24CE
330
1F
100
AcDbEntity
  8
0
  6
Continuous
100
AcDbLine
 10
801.3819999999991
 20
-353.8018396094149
 30
0.0
 11
774.281999999999
 21
-353.8018396094149
 31
0.0
  0
LINE
  5
24CF
330
1F
100
AcDbEntity
  8
2 depth
  6
Continuous
100
AcDbLine
 10
803.3819999999991
 20
-343.301839609415
 30
0.0
 11
772.281999999999
 21
-343.301839609415
 31
0.0
  0
LINE
  5
24D0
330
1F
100
AcDbEntity
  8
2 depth
  6
JIS_09_08
100
AcDbLine
 10
803.3819999999993
 20
-342.1858396094151
 30
0.0
 11
772.2819999999991
 21
-342.1858396094151
 31
0.0
  0
LINE
  5
24D1
330
1F
100
AcDbEntity
  8
0
  6
Continuous
100
AcDbLine
 10
772.281999999999
 20
-276.4378396094148
 30
0.0
 11
772.281999999999
 21
-278.6698396094148
 31
0.0
  0
LINE
  5
24D2
330
1F
100
AcDbEntity
  8
0
  6
Continuous
100
AcDbLine
 10
771.2319999999992
 20
-343.0698396094149
 30
0.0
 11
768.9999999999992
 21
-343.0698396094149
 31
0.0
  0
LINE
  5
24D3
330
1F
100
AcDbEntity
  8
2 depth
  6
JIS_09_08
100
AcDbLine
 10
770.1159999999993
 20
-343.0698396094149
 30
0.0
 11
770.1159999999993
 21
-276.6698396094151
 31
0.0
  0
CIRCLE
  5
24D4
330
1F
100
AcDbEntity
  8
0
  6
Continuous
100
AcDbCircle
 10
787.4319999999991
 20
-293.8698396094149
 30
0.0
 40
5.5
  0
CIRCLE
  5
24D5
330
1F
100
AcDbEntity
  8
0
  6
Continuous
100
AcDbCircle
 10
787.4319999999991
 20
-325.869839609415
 30
0.0
 40
5.5
  0
CIRCLE
  5
24D6
330
1F
100
AcDbEntity
  8
0
  6
Continuous
100
AcDbCircle
 10
787.4319999999991
 20
-309.869839609415
 30
0.0
 40
4.0
  0
VIEWPORT
  5
1AA6
102
{ACAD_XDICTIONARY
360
1AA7
102
}
330
D6
100
AcDbEntity
 67
     1
  8
0
100
AcDbViewport
 10
128.5
 20
97.5
 30
0.0
 40
411.6919298245614
 41
222.18
 68
     1
 69
     1
 12
128.5
 22
97.5
 13
0.0
 23
0.0
 14
10.0
 24
10.0
 15
10.0
 25
10.0
 16
0.0
 26
0.0
 36
1.0
 17
0.0
 27
0.0
 37
0.0
 42
50.0
 43
0.0
 44
0.0
 45
222.18
 50
0.0
 51
0.0
 72
  1000
 90
   819232
  1

281
     0
 71
     1
 74
     0
110
0.0
120
0.0
130
0.0
111
1.0
121
0.0
131
0.0
112
0.0
122
1.0
132
0.0
 79
     0
146
0.0
170
     0
 61
     5
348
F5
292
     1
282
     1
141
0.0
142
0.0
 63
   250
421
  3355443
  0
VIEWPORT
  5
1AAA
102
{ACAD_XDICTIONARY
360
1AAB
102
}
330
D6
100
AcDbEntity
 67
     1
  8
2 depth
100
AcDbViewport
 10
128.5
 20
97.5
 30
0.0
 40
205.6
 41
156.0
 68
     2
 69
     2
 12
60.0
 22
19.5
 13
0.0
 23
0.0
 14
10.0
 24
10.0
 15
10.0
 25
10.0
 16
0.0
 26
0.0
 36
1.0
 17
0.0
 27
0.0
 37
0.0
 42
50.0
 43
0.0
 44
0.0
 45
91.54408275600266
 50
0.0
 51
0.0
 72
  1000
 90
   819808
  1

281
     0
 71
     1
 74
     0
110
0.0
120
0.0
130
0.0
111
1.0
121
0.0
131
0.0
112
0.0
122
1.0
132
0.0
 79
     0
146
0.0
170
     0
 61
     5
348
F5
292
     1
282
     1
141
0.0
142
0.0
 63
   250
421
  3355443
  0
ENDSEC
  0
SECTION
  2
OBJECTS
  0
DICTIONARY
  5
C
330
0
100
AcDbDictionary
281
     1
  3
ACAD_BACKGROUND
350
B2F
  3
ACAD_CIP_PREVIOUS_PRODUCT_INFO
350
216
  3
ACAD_COLOR
350
6B
  3
ACAD_DETAILVIEWSTYLE
350
21B
  3
ACAD_GROUP
350
D
  3
ACAD_LAYOUT
350
1A
  3
ACAD_MATERIAL
350
6A
  3
ACAD_MLEADERSTYLE
350
12D
  3
ACAD_MLINESTYLE
350
17
  3
ACAD_PLOTSETTINGS
350
19
  3
ACAD_PLOTSTYLENAME
350
E
  3
ACAD_RENDER_RAPIDRT_SETTINGS
350
1D19
  3
ACAD_SCALELIST
350
10C
  3
ACAD_SECTIONVIEWSTYLE
350
219
  3
ACAD_TABLESTYLE
350
7E
  3
ACAD_VISUALSTYLE
350
EF
  3
ACDB_RECOMPOSE_DATA
350
24E4
  3
AcDbVariableDictionary
350
5E
  3
Siberia
350
25E
  0
DICTIONARY
  5
1FF
330
2
100
AcDbDictionary
280
     1
281
     1
  3
ACAD_LAYERSTATES
360
200
  0
DICTIONARY
  5
13C
330
10
100
AcDbDictionary
280
     1
281
     1
  0
DICTIONARY
  5
1CE
330
1F
100
AcDbDictionary
280
     1
281
     1
  3
ACAD_SORTENTS
360
28B
  0
DICTIONARY
  5
1882
330
187D
100
AcDbDictionary
280
     1
281
     1
  3
ACAD_SORTENTS
360
1883
  0
DICTIONARY
  5
1A96
330
1A95
100
AcDbDictionary
280
     1
281
     1
  3
ASDK_XREC_ANNOTATION_SCALE_INFO
360
1A97
  0
DICTIONARY
  5
1A9A
330
1A99
100
AcDbDictionary
280
     1
281
     1
  3
ASDK_XREC_ANNOTATION_SCALE_INFO
360
1A9B
  0
DICTIONARY
  5
200C
330
200B
100
AcDbDictionary
280
     1
281
     1
  3
ACAD_DIMASSOC
360
200D
  0
DICTIONARY
  5
2048
330
203D
100
AcDbDictionary
280
     1
281
     1
  3
ACAD_DIMASSOC
360
2050
  0
DICTIONARY
  5
1AA7
330
1AA6
100
AcDbDictionary
280
     1
281
     1
  3
ASDK_XREC_ANNOTATION_SCALE_INFO
360
1AA8
  0
DICTIONARY
  5
1AAB
330
1AAA
100
AcDbDictionary
280
     1
281
     1
  3
ASDK_XREC_ANNOTATION_SCALE_INFO
360
1AAC
  0
DICTIONARY
  5
B2F
102
{ACAD_REACTORS
330
C
102
}
330
C
100
AcDbDictionary
281
     1
  0
XRECORD
  5
216
102
{ACAD_REACTORS
330
C
102
}
330
C
100
AcDbXrecord
280
     1
300
ACD
300
2016
300
DSADV_F_S
  0
DICTIONARY
  5
6B
102
{ACAD_REACTORS
330
C
102
}
330
C
100
AcDbDictionary
281
     1
  0
DICTIONARY
  5
21B
102
{ACAD_REACTORS
330
C
102
}
330
C
100
AcDbDictionary
281
     1
  3
Metric50
350
21C
  0
DICTIONARY
  5
D
102
{ACAD_REACTORS
330
C
102
}
330
C
100
AcDbDictionary
281
     1
  0
DICTIONARY
  5
1A
102
{ACAD_REACTORS
330
C
102
}
330
C
100
AcDbDictionary
281
     1
  3
Model
350
22
  3
Лист1
350
D3
  3
Лист2
350
D7
  0
DICTIONARY
  5
6A
102
{ACAD_REACTORS
330
C
102
}
330
C
100
AcDbDictionary
281
     1
  3
ByBlock
350
ED
  3
ByLayer
350
EC
  3
Global
350
EE
  0
DICTIONARY
  5
12D
102
{ACAD_REACTORS
330
C
102
}
330
C
100
AcDbDictionary
281
     1
  3
Standard
350
12E
  3
Аннотативный
350
13B
  0
DICTIONARY
  5
17
102
{ACAD_REACTORS
330
C
102
}
330
C
100
AcDbDictionary
281
     1
  3
Standard
350
18
  0
DICTIONARY
  5
19
102
{ACAD_REACTORS
330
C
102
}
330
C
100
AcDbDictionary
281
     1
  0
ACDBDICTIONARYWDFLT
  5
E
102
{ACAD_REACTORS
330
C
102
}
330
C
100
AcDbDictionary
281
     1
  3
Normal
350
F
100
AcDbDictionaryWithDefault
340
F
  0
DICTIONARY
  5
1D19
102
{ACAD_REACTORS
330
C
102
}
330
C
100
AcDbDictionary
281
     1
  3
1-я скорость
350
1D1F
  3
2-я скорость
350
1D1E
  3
3-я скорость
350
1D1D
  3
Высокое
350
1D1C
  3
Низкое
350
1D1A
  3
Среднее
350
1D1B
  0
DICTIONARY
  5
10C
102
{ACAD_REACTORS
330
C
102
}
330
C
100
AcDbDictionary
281
     1
  3
A0
350
10D
  3
A1
350
1BE
  3
A2
350
1BF
  3
A3
350
1C0
  3
A4
350
1C1
  3
A5
350
1C2
  3
A6
350
1C3
  3
A7
350
1C4
  3
A8
350
1C5
  3
A9
350
1C6
  3
B0
350
1C7
  3
B1
350
1C8
  3
B2
350
1C9
  3
B3
350
1CA
  3
B4
350
1CB
  3
B5
350
1CC
  3
B6
350
1CD
  0
DICTIONARY
  5
219
102
{ACAD_REACTORS
330
C
102
}
330
C
100
AcDbDictionary
281
     1
  3
Metric50
350
21A
  0
DICTIONARY
  5
7E
102
{ACAD_REACTORS
330
C
102
}
330
C
100
AcDbDictionary
281
     1
  3
Standard
350
7F
  0
DICTIONARY
  5
EF
102
{ACAD_REACTORS
330
C
102
}
330
C
100
AcDbDictionary
281
     1
  3
2dWireframe
350
F5
  3
Basic
350
F4
  3
Brighten
350
FB
  3
ColorChange
350
FF
  3
Conceptual
350
F8
  3
Dim
350
FA
  3
EdgeColorOff
350
1E6
  3
Facepattern
350
FE
  3
Flat
350
F0
  3
FlatWithEdges
350
F1
  3
Gouraud
350
F2
  3
GouraudWithEdges
350
F3
  3
Hidden
350
F7
  3
JitterOff
350
1E4
  3
Linepattern
350
FD
  3
OverhangOff
350
1E5
  3
Realistic
350
F9
  3
Shaded
350
1F3
  3
Shaded with edges
350
1F2
  3
Shades of Gray
350
1EF
  3
Sketchy
350
1F0
  3
Thicken
350
FC
  3
Wireframe
350
F6
  3
X-Ray
350
1F1
  0
XRECORD
  5
24E4
102
{ACAD_REACTORS
330
C
102
}
330
C
100
AcDbXrecord
280
     1
 90
        1
330
7F
330
21A
330
21C
330
2005
330
2006
330
2007
330
203D
330
23B4
330
23B5
  0
DICTIONARY
  5
5E
102
{ACAD_REACTORS
330
C
102
}
330
C
100
AcDbDictionary
281
     1
  3
CANNOSCALE
350
146
  3
CMLEADERSTYLE
350
145
  3
CTABLESTYLE
350
84
  3
CVIEWDETAILSTYLE
350
227
  3
CVIEWSECTIONSTYLE
350
228
  3
DIMASSOC
350
5F
  3
EXPORTPAGESETUP
350
1D2A
  3
HIDETEXT
350
63
  3
HPCOLOR
350
23E4
  3
HPTRANSPARENCY
350
23E3
  3
LAYEREVAL
350
1AE
  3
LAYERNOTIFY
350
1AF
  0
DICTIONARY
  5
25E
102
{ACAD_REACTORS
330
C
102
}
330
C
100
AcDbDictionary
280
     1
281
     1
  3
Styles
360
25F
  0
DICTIONARY
  5
200
102
{ACAD_REACTORS
330
1FF
102
}
330
1FF
100
AcDbDictionary
281
     1
  0
SORTENTSTABLE
  5
28B
102
{ACAD_REACTORS
330
1CE
102
}
330
1CE
100
AcDbSortentsTable
330
1F
331
1FDD
  5
1FDD
331
1F57
  5
1F59
331
1FD9
  5
1FD9
331
1FA2
  5
1FA2
331
1F53
  5
1F55
331
1FD5
  5
1FD5
331
1F9E
  5
1F9E
331
1F4F
  5
1F52
331
1FD1
  5
1FD1
331
248E
  5
2493
331
248A
  5
248E
331
2414
  5
2415
331
2486
  5
248A
331
2482
  5
2486
331
23D9
  5
23E0
331
1F1C
  5
1F30
331
1DF7
  5
1DF7
331
1E4E
  5
1E55
331
23D1
  5
23DA
331
1F18
  5
1F2C
331
1DF3
  5
1DF3
331
1E4A
  5
1E51
331
1F14
  5
1F23
331
1DEF
  5
1DEF
331
1E46
  5
1E4D
331
1F10
  5
1F1B
331
1DEB
  5
1DE7
331
1E42
  5
1E49
331
1FCD
  5
1FCD
331
1DE7
  5
1DE9
331
1FC9
  5
1FC9
331
247E
  5
2482
331
247A
  5
247E
331
23CD
  5
23D6
331
23C9
  5
23CE
331
23C5
  5
23CA
331
1F0C
  5
1F17
331
1E3E
  5
1E45
331
23C1
  5
23C6
331
1F08
  5
1E1B
331
1F47
  5
1EF8
331
1E3A
  5
1E43
331
1F04
  5
1E17
331
1F43
  5
1EF6
331
1E36
  5
1E3F
331
1E75
  5
1E8A
331
1E32
  5
1E39
331
1FFC
  5
1FFC
331
1FF8
  5
1FF8
331
1FC1
  5
1FC1
331
1FBD
  5
1FBD
331
1FF0
  5
1FF0
331
1FB9
  5
1FB9
331
2476
  5
2419
331
2433
  5
244A
331
242F
  5
2447
331
242B
  5
2434
331
23BD
  5
23C2
331
23B9
  5
23BD
331
1F3F
  5
1F48
331
23B5
  5
23B5
331
1F3B
  5
1F44
331
1E6D
  5
1E82
331
1F37
  5
1F43
331
1E1A
  5
1E30
331
1F33
  5
1F3F
331
1E16
  5
1E16
331
1EF4
  5
1F0F
331
1E12
  5
1E12
331
1E61
  5
1E73
331
1EF0
  5
1F0B
331
1FEC
  5
1FEC
331
1F66
  5
1F67
331
1FE8
  5
1FE8
331
1F62
  5
1EED
331
1FE4
  5
1FE4
331
1FAD
  5
1FAD
331
1F5E
  5
1F64
331
1FE0
  5
1FE0
331
1FA9
  5
1FA9
331
1F5A
  5
1F5C
331
2466
  5
247A
331
1F2F
  5
1F3B
331
1E5D
  5
1E6F
331
1EEC
  5
1F07
331
1F27
  5
1F32
331
1E02
  5
1E02
331
1E59
  5
1E65
331
1EE8
  5
1F02
331
1F23
  5
1F31
331
1E55
  5
1E5D
331
1EE4
  5
1EFA
331
1DFA
  5
1DFA
331
1E51
  5
1E59
331
1FDC
  5
1FDC
331
1FA5
  5
1FA5
331
1F56
  5
1F58
331
1FD8
  5
1FD8
331
1F52
  5
1F54
331
1FD4
  5
1FD4
331
1F4E
  5
1F51
331
1FD0
  5
1FD0
331
1F99
  5
1F99
331
248D
  5
2492
331
2417
  5
242D
331
2489
  5
248D
331
2485
  5
2489
331
2481
  5
2485
331
23D8
  5
23DF
331
1F1B
  5
1F2F
331
1E4D
  5
1E54
331
23D0
  5
23D9
331
1DF2
  5
1DF2
331
1E49
  5
1E50
331
1E90
  5
1EF2
331
1F17
  5
1F29
331
1DEE
  5
1DEE
331
1E45
  5
1E4C
331
1F13
  5
1F1E
331
1DEA
  5
1DE8
331
1E41
  5
1E48
331
200B
  5
200B
331
2007
  5
2007
331
1FCC
  5
1FCC
331
1DE6
  5
1DE6
331
1FC8
  5
1FC8
331
247D
  5
2481
331
2479
  5
247D
331
23CC
  5
23D2
331
23C8
  5
23CD
331
1F0F
  5
1F1A
331
23C4
  5
23C9
331
1F0B
  5
1F16
331
23C0
  5
23C5
331
1F46
  5
1E7D
331
1E39
  5
1E42
331
1F07
  5
1E36
331
1F42
  5
1EEE
331
1E35
  5
1E3E
331
1F03
  5
1F15
331
1E31
  5
1E38
331
203A
  5
203A
331
1FFB
  5
1FFB
331
1FF7
  5
1FF7
331
1FC0
  5
1FC0
331
1FBC
  5
1FBC
331
1FB8
  5
1FB8
331
2432
  5
2449
331
23BC
  5
23C1
331
23B8
  5
23BC
331
23F7
  5
23B7
331
1F3E
  5
1F47
331
23B4
  5
23B4
331
1EFB
  5
1F13
331
1F36
  5
1F42
331
1E19
  5
1E1C
331
1F32
  5
1F3E
331
1E15
  5
1E15
331
1EF3
  5
1F0E
331
1E60
  5
1E6D
331
1FEF
  5
1FEF
331
1FEB
  5
1FEB
331
1F65
  5
1F62
331
1FE7
  5
1FE7
331
1F61
  5
1F5E
331
1FE3
  5
1FE3
331
1F59
  5
1F5B
331
2465
  5
2479
331
2461
  5
2478
331
245D
  5
246B
331
2490
  5
2495
331
1F2E
  5
1F37
331
1EEF
  5
1F0A
331
1E5C
  5
1E6E
331
1EEB
  5
1F05
331
1E58
  5
1E61
331
1F22
  5
1E7F
331
1E54
  5
1E5C
331
1DF9
  5
1DF9
331
1E50
  5
1E57
331
1FDF
  5
1FDF
331
1FDB
  5
1FDB
331
1F55
  5
1F57
331
1FD7
  5
1FD7
331
1F51
  5
1F53
331
1FD3
  5
1FD3
331
248C
  5
2490
331
2488
  5
248C
331
2484
  5
2488
331
2480
  5
2484
331
23DB
  5
23E2
331
23D7
  5
23DE
331
1F1A
  5
1F2E
331
1E4C
  5
1E53
331
1DF1
  5
1DF1
331
1E48
  5
1E4F
331
1E8F
  5
1EEB
331
1F16
  5
1F28
331
1DED
  5
1DED
331
1E44
  5
1E4B
331
1F12
  5
1F1D
331
1DE9
  5
1DEB
331
1E40
  5
1E47
331
2006
  5
2006
331
1FCF
  5
1FCF
331
1FCB
  5
1FCB
331
247C
  5
2480
331
2478
  5
247C
331
23CF
  5
23D8
331
23CB
  5
23D0
331
23C7
  5
23CC
331
1F0E
  5
1F19
331
23C3
  5
23C8
331
1F0A
  5
1E31
331
1F45
  5
1EEF
331
1E38
  5
1E41
331
1F06
  5
1E34
331
1F41
  5
1F4F
331
1E34
  5
1E3B
331
1F02
  5
1F14
331
1E30
  5
1E37
331
203D
  5
203D
331
1FC7
  5
1FC7
331
1FC3
  5
1FC3
331
1FF6
  5
1FF6
331
1FBF
  5
1FBF
331
1FBB
  5
1FBB
331
2431
  5
2427
331
242D
  5
2438
331
2468
  5
247B
331
23BF
  5
23C4
331
23BB
  5
23BF
331
23B7
  5
23BB
331
1F3D
  5
1F46
331
1E1C
  5
1E35
331
1EFA
  5
1F12
331
1F35
  5
1F41
331
1E18
  5
1E1A
331
1EF6
  5
1F11
331
1F31
  5
1F3D
331
1E14
  5
1E14
331
1EF2
  5
1F0D
331
1FEE
  5
1FEE
331
1FEA
  5
1FEA
331
1F64
  5
1F65
331
1FE6
  5
1FE6
331
1FAF
  5
1FAF
331
1F60
  5
1F63
331
1FE2
  5
1FE2
331
1F5C
  5
1F61
331
1F58
  5
1F5A
331
249F
  5
242C
331
2425
  5
2430
331
2460
  5
246D
331
2421
  5
242F
331
245C
  5
246A
331
1F2D
  5
1F36
331
1E5F
  5
1E58
331
1F29
  5
1F34
331
1E04
  5
1E04
331
1E5B
  5
1E69
331
1EEA
  5
1F04
331
1E57
  5
1E5F
331
1EE6
  5
1EF0
331
1F21
  5
1E81
331
1DFC
  5
1DFC
331
1E53
  5
1E5B
331
1DF8
  5
1DF8
331
1FDE
  5
1FDE
331
1FDA
  5
1FDA
331
1F54
  5
1F56
331
1FD6
  5
1FD6
331
1FD2
  5
1FD2
331
1F48
  5
1EF3
331
248F
  5
2494
331
248B
  5
248F
331
2415
  5
242A
331
2487
  5
248B
331
2483
  5
2487
331
23DA
  5
23E1
331
23D6
  5
23DD
331
1E4F
  5
1E56
331
23D2
  5
23DB
331
1F19
  5
1F2D
331
1E4B
  5
1E52
331
1DF0
  5
1DF0
331
1E47
  5
1E4E
331
1F15
  5
1F27
331
1DEC
  5
1DEC
331
1E43
  5
1E4A
331
1F11
  5
1F1C
331
1DE8
  5
1DEA
331
2005
  5
2005
331
1FCE
  5
1FCE
331
1FCA
  5
1FCA
331
247F
  5
2483
331
247B
  5
247F
331
23CE
  5
23D7
331
23CA
  5
23CF
331
23C6
  5
23CB
331
2350
  5
2350
331
1E3F
  5
1E46
331
1F0D
  5
1F18
331
23C2
  5
23C7
331
1E3B
  5
1E44
331
1F09
  5
1E32
331
1F44
  5
1EEC
331
1E37
  5
1E40
331
1E76
  5
1EEA
331
1F05
  5
1E19
331
1F40
  5
1F4E
331
1E33
  5
1E3A
331
1FC2
  5
1FC2
331
1FF5
  5
1FF5
331
1FBE
  5
1FBE
331
1FBA
  5
1FBA
331
2434
  5
241A
331
2430
  5
2448
331
242C
  5
2437
331
23BE
  5
23C3
331
23BA
  5
23BE
331
23B6
  5
23BA
331
1F3C
  5
1F45
331
1E6E
  5
1E83
331
1E1B
  5
1E33
331
1EF9
  5
1F09
331
1E17
  5
1E18
331
1EF5
  5
1F10
331
1F34
  5
1F40
331
1E13
  5
1E13
331
1EF1
  5
1F0C
331
1F30
  5
1F3C
331
1FED
  5
1FED
331
1FB6
  5
1FB6
331
1F67
  5
1F60
331
1FE9
  5
1FE9
331
1FB2
  5
1FB2
331
1F63
  5
1EF4
331
1FE5
  5
1FE5
331
1FAE
  5
1FAE
331
1F5F
  5
1F66
331
1FE1
  5
1FE1
331
1F5B
  5
1F5D
331
245F
  5
246C
331
245B
  5
2468
331
2418
  5
242E
331
1F2C
  5
1F35
331
1E5A
  5
1E68
331
1EE9
  5
1F03
331
1E03
  5
1E03
331
1F28
  5
1F33
331
1EE5
  5
1EFB
331
1DFF
  5
1DFF
331
1E56
  5
1E5E
331
1DFB
  5
1DFB
331
1E52
  5
1E5A
  0
SORTENTSTABLE
  5
1883
102
{ACAD_REACTORS
330
1882
102
}
330
1882
100
AcDbSortentsTable
330
187D
  0
XRECORD
  5
1A97
102
{ACAD_REACTORS
330
1A96
102
}
330
1A96
100
AcDbXrecord
280
     1
 90
        1
340
10D
  0
XRECORD
  5
1A9B
102
{ACAD_REACTORS
330
1A9A
102
}
330
1A9A
100
AcDbXrecord
280
     1
 90
        1
340
10D
  0
DIMASSOC
  5
200D
102
{ACAD_REACTORS
330
200C
102
}
330
200C
100
AcDbDimAssoc
330
200B
 90
        1
 70
     0
 71
     0
  1
AcDbOsnapPointRef
 72
     3
331
1FC3
 73
     2
 91
        0
 40
0.0
 10
0.0
 20
0.0
 30
0.0
 75
     0
  0
DIMASSOC
  5
2050
102
{ACAD_REACTORS
330
2048
102
}
330
2048
100
AcDbDimAssoc
330
203D
 90
        2
 70
     0
 71
     0
  1
AcDbOsnapPointRef
 72
     3
331
1E4D
 73
     2
 91
        0
 40
0.0
 10
0.0
 20
0.0
 30
0.0
 75
     0
  0
XRECORD
  5
1AA8
102
{ACAD_REACTORS
330
1AA7
102
}
330
1AA7
100
AcDbXrecord
280
     1
 90
        1
340
10D
  0
XRECORD
  5
1AAC
102
{ACAD_REACTORS
330
1AAB
102
}
330
1AAB
100
AcDbXrecord
280
     1
 90
        1
340
10D
  0
ACDBDETAILVIEWSTYLE
  5
21C
102
{ACAD_XDICTIONARY
360
236
102
}
102
{ACAD_REACTORS
330
21B
102
}
330
21B
100
AcDbModelDocViewStyle
 70
     0
  3
Metric50
290
     0
100
AcDbDetailViewStyle
 70
     0
 71
     0
 90
        3
 71
     1
340
11
 62
   256
 40
5.0
340
0
 62
   256
 40
5.0
300

 40
0.0
280
     1
 71
     2
340
16
 90
       25
 62
   256
 71
     3
340
11
 62
   256
 40
5.0
 90
        0
 40
15.0
 90
        1
300
%<\AcVar ViewDetailId>% (%<\AcVar ViewScale \f "%sn">%)
 71
     4
340
16
 90
       25
 62
   256
340
16
 90
       25
 62
   256
280
     0
  0
LAYOUT
  5
22
102
{ACAD_XDICTIONARY
360
205
102
}
102
{ACAD_REACTORS
330
1A
102
}
330
1A
100
AcDbPlotSettings
  1

  2
none_device
  4
ISO_A4_(210.00_x_297.00_MM)
  6

 40
7.5
 41
20.0
 42
7.5
 43
20.0
 44
210.0
 45
297.0
 46
11.54999923706054
 47
-13.65000009536743
 48
0.0
 49
0.0
140
0.0
141
0.0
142
1.0
143
8.704084754739808
 70
 11952
 72
     1
 73
     0
 74
     0
  7

 75
     0
147
0.1148885871608098
 76
     0
 77
     2
 78
   300
148
0.0
149
0.0
100
AcDbLayout
  1
Model
 70
     1
 71
     0
 10
0.0
 20
0.0
 11
12.0
 21
9.0
 12
0.0
 22
0.0
 32
0.0
 14
0.0
 24
0.0
 34
0.0
 15
0.0
 25
0.0
 35
0.0
146
0.0
 13
0.0
 23
0.0
 33
0.0
 16
1.0
 26
0.0
 36
0.0
 17
0.0
 27
1.0
 37
0.0
 76
     0
330
1F
331
EA
1001
ACAD_PSEXT
1000
None
1000
None
1000
Not applicable
1000
The layout will not be plotted unless a new plotter configuration name is selected.
1070
     0
  0
LAYOUT
  5
D3
102
{ACAD_REACTORS
330
1A
102
}
330
1A
100
AcDbPlotSettings
  1

  2
Нет
  4
ISO_A4_(210.00_x_297.00_MM)
  6

 40
7.5
 41
20.0
 42
7.5
 43
20.0
 44
210.0
 45
297.0
 46
0.0
 47
0.0
 48
0.0
 49
0.0
140
0.0
141
0.0
142
1.0
143
1.0
 70
   688
 72
     1
 73
     1
 74
     5
  7

 75
    16
147
1.0
 76
     0
 77
     2
 78
   300
148
0.0
149
0.0
100
AcDbLayout
  1
Лист1
 70
     1
 71
     1
 10
-20.0
 20
-7.5
 11
277.0
 21
202.5
 12
0.0
 22
0.0
 32
0.0
 14
25.69999999999999
 24
19.5
 34
0.0
 15
231.3
 25
175.5
 35
0.0
146
0.0
 13
0.0
 23
0.0
 33
0.0
 16
1.0
 26
0.0
 36
0.0
 17
0.0
 27
1.0
 37
0.0
 76
     0
330
D2
331
1A95
1001
ACAD_PSEXT
1000
Нет
1000
Нет
1000
Неприменимо
1000
Лист не будет напечатан, если не выбрать имя конфигурации плоттера.
1070
     0
  0
LAYOUT
  5
D7
102
{ACAD_REACTORS
330
1A
102
}
330
1A
100
AcDbPlotSettings
  1

  2
Нет
  4
ISO_A4_(210.00_x_297.00_MM)
  6

 40
7.5
 41
20.0
 42
7.5
 43
20.0
 44
210.0
 45
297.0
 46
0.0
 47
0.0
 48
0.0
 49
0.0
140
0.0
141
0.0
142
1.0
143
1.0
 70
   688
 72
     1
 73
     1
 74
     5
  7

 75
    16
147
1.0
 76
     0
 77
     2
 78
   300
148
0.0
149
0.0
100
AcDbLayout
  1
Лист2
 70
     1
 71
     2
 10
-20.0
 20
-7.5
 11
277.0
 21
202.5
 12
0.0
 22
0.0
 32
0.0
 14
25.69999999999999
 24
19.5
 34
0.0
 15
231.3
 25
175.5
 35
0.0
146
0.0
 13
0.0
 23
0.0
 33
0.0
 16
1.0
 26
0.0
 36
0.0
 17
0.0
 27
1.0
 37
0.0
 76
     0
330
D6
331
1AA6
1001
ACAD_PSEXT
1000
Нет
1000
Нет
1000
Неприменимо
1000
Лист не будет напечатан, если не выбрать имя конфигурации плоттера.
1070
     0
  0
MATERIAL
  5
ED
102
{ACAD_XDICTIONARY
360
1F9
102
}
102
{ACAD_REACTORS
330
6A
102
}
330
6A
100
AcDbMaterial
  1
ByBlock
 94
       63
  0
MATERIAL
  5
EC
102
{ACAD_XDICTIONARY
360
1F7
102
}
102
{ACAD_REACTORS
330
6A
102
}
330
6A
100
AcDbMaterial
  1
ByLayer
 94
       63
  0
MATERIAL
  5
EE
102
{ACAD_XDICTIONARY
360
173
102
}
102
{ACAD_REACTORS
330
6A
102
}
330
6A
100
AcDbMaterial
  1
Global
 43
0.0007999999797903
 43
0.0
 43
0.0
 43
0.0
 43
0.0
 43
0.0007999999797903
 43
0.0
 43
0.0
 43
0.0
 43
0.0
 43
1.0
 43
0.0
 43
0.0
 43
0.0
 43
0.0
 43
1.0
 49
0.0007999999797903
 49
0.0
 49
0.0
 49
0.0
 49
0.0
 49
0.0007999999797903
 49
0.0
 49
0.0
 49
0.0
 49
0.0
 49
1.0
 49
0.0
 49
0.0
 49
0.0
 49
0.0
 49
1.0
142
0.0007999999797903
142
0.0
142
0.0
142
0.0
142
0.0
142
0.0007999999797903
142
0.0
142
0.0
142
0.0
142
0.0
142
1.0
142
0.0
142
0.0
142
0.0
142
0.0
142
1.0
144
0.0007999999797903
144
0.0
144
0.0
144
0.0
144
0.0
144
0.0007999999797903
144
0.0
144
0.0
144
0.0
144
0.0
144
1.0
144
0.0
144
0.0
144
0.0
144
0.0
144
1.0
 94
       63
1001
ACAD
1070
    -1
1070
     3
1070
     0
1000

1071
        0
1070
     0
  0
MLEADERSTYLE
  5
12E
102
{ACAD_REACTORS
330
12D
330
200B
330
203A
102
}
330
12D
100
AcDbMLeaderStyle
179
     2
170
     2
171
     1
172
     0
 90
        2
 40
0.0
 41
0.0
173
     1
 91
-1056964608
340
14
 92
       -2
290
     1
 42
2.0
291
     1
 43
8.0
  3
Standard
 44
4.0
300

342
11
174
     1
178
     1
175
     1
176
     0
 93
-1056964608
 45
4.0
292
     0
297
     0
 46
4.0
 94
-1056964608
 47
1.0
 49
1.0
140
1.0
293
     1
141
0.0
294
     1
177
     0
142
1.0
295
     0
296
     0
143
3.75
271
     0
272
     9
273
     9
298
     0
  0
MLEADERSTYLE
  5
13B
102
{ACAD_REACTORS
330
12D
102
}
330
12D
100
AcDbMLeaderStyle
179
     2
170
     2
171
     1
172
     0
 90
        2
 40
0.0
 41
0.0
173
     1
 91
-1056964608
340
14
 92
       -2
290
     1
 42
2.0
291
     1
 43
8.0
  3
Standard
 44
4.0
300

342
11
174
     1
178
     1
175
     1
176
     0
 93
-1056964608
 45
4.0
292
     0
297
     0
 46
4.0
 94
-1056964608
 47
1.0
 49
1.0
140
1.0
293
     1
141
0.0
294
     1
177
     0
142
1.0
295
     0
296
     1
143
3.75
271
     0
272
     9
273
     9
298
     0
  0
MLINESTYLE
  5
18
102
{ACAD_REACTORS
330
17
102
}
330
17
100
AcDbMlineStyle
  2
STANDARD
 70
     0
  3

 62
   256
 51
90.0
 52
90.0
 71
     2
 49
0.5
 62
   256
  6
BYLAYER
 49
-0.5
 62
   256
  6
BYLAYER
  0
ACDBPLACEHOLDER
  5
F
102
{ACAD_REACTORS
330
E
102
}
330
E
  0
RAPIDRTRENDERSETTINGS
  5
1D1F
102
{ACAD_REACTORS
330
1D19
102
}
330
1D19
100
AcDbRenderSettings
 90
        2
  1
1-я скорость
290
     1
290
     0
290
     1
290
     1
  1

  1
Визуализация в течение 12 часов
 90
        5
100
AcDbRapidRTRenderSettings
 90
        3
 70
     1
 90
        1
 90
      720
 70
     2
 70
     2
 40
3.0
 40
3.0
290
     1
  0
RAPIDRTRENDERSETTINGS
  5
1D1E
102
{ACAD_REACTORS
330
1D19
102
}
330
1D19
100
AcDbRenderSettings
 90
        2
  1
2-я скорость
290
     1
290
     0
290
     1
290
     1
  1

  1
Визуализация в течение 60 минут
 90
        4
100
AcDbRapidRTRenderSettings
 90
        3
 70
     1
 90
        1
 90
       60
 70
     2
 70
     2
 40
3.0
 40
3.0
290
     1
  0
RAPIDRTRENDERSETTINGS
  5
1D1D
102
{ACAD_REACTORS
330
1D19
102
}
330
1D19
100
AcDbRenderSettings
 90
        2
  1
3-я скорость
290
     1
290
     0
290
     1
290
     1
  1

  1
Визуализация в течение 10 минут
 90
        3
100
AcDbRapidRTRenderSettings
 90
        3
 70
     1
 90
        1
 90
       10
 70
     1
 70
     2
 40
3.0
 40
3.0
290
     1
  0
RAPIDRTRENDERSETTINGS
  5
1D1C
102
{ACAD_REACTORS
330
1D19
102
}
330
1D19
100
AcDbRenderSettings
 90
        2
  1
Высокое
290
     1
290
     0
290
     1
290
     1
  1

  1
Применяется 10 уровней визуализации
 90
        2
100
AcDbRapidRTRenderSettings
 90
        3
 70
     0
 90
       10
 90
        1
 70
     2
 70
     2
 40
3.0
 40
3.0
290
     1
  0
RAPIDRTRENDERSETTINGS
  5
1D1A
102
{ACAD_REACTORS
330
1D19
102
}
330
1D19
100
AcDbRenderSettings
 90
        2
  1
Низкое
290
     1
290
     0
290
     1
290
     1
  1

  1
Применяется 1 уровень визуализации
 90
        0
100
AcDbRapidRTRenderSettings
 90
        3
 70
     0
 90
        1
 90
        1
 70
     0
 70
     2
 40
3.0
 40
3.0
290
     1
  0
RAPIDRTRENDERSETTINGS
  5
1D1B
102
{ACAD_REACTORS
330
1D19
102
}
330
1D19
100
AcDbRenderSettings
 90
        2
  1
Среднее
290
     1
290
     0
290
     1
290
     1
  1

  1
Применяется 5 уровней визуализации
 90
        1
100
AcDbRapidRTRenderSettings
 90
        3
 70
     0
 90
        5
 90
        1
 70
     1
 70
     2
 40
3.0
 40
3.0
290
     1
  0
SCALE
  5
10D
102
{ACAD_REACTORS
330
10C
102
}
330
10C
100
AcDbScale
 70
     0
300
1:1
140
1.0
141
1.0
290
     1
  0
SCALE
  5
1BE
102
{ACAD_REACTORS
330
10C
102
}
330
10C
100
AcDbScale
 70
     0
300
1:2
140
1.0
141
2.0
290
     0
  0
SCALE
  5
1BF
102
{ACAD_REACTORS
330
10C
102
}
330
10C
100
AcDbScale
 70
     0
300
1:4
140
1.0
141
4.0
290
     0
  0
SCALE
  5
1C0
102
{ACAD_REACTORS
330
10C
102
}
330
10C
100
AcDbScale
 70
     0
300
1:5
140
1.0
141
5.0
290
     0
  0
SCALE
  5
1C1
102
{ACAD_REACTORS
330
10C
102
}
330
10C
100
AcDbScale
 70
     0
300
1:8
140
1.0
141
8.0
290
     0
  0
SCALE
  5
1C2
102
{ACAD_REACTORS
330
10C
102
}
330
10C
100
AcDbScale
 70
     0
300
1:10
140
1.0
141
10.0
290
     0
  0
SCALE
  5
1C3
102
{ACAD_REACTORS
330
10C
102
}
330
10C
100
AcDbScale
 70
     0
300
1:16
140
1.0
141
16.0
290
     0
  0
SCALE
  5
1C4
102
{ACAD_REACTORS
330
10C
102
}
330
10C
100
AcDbScale
 70
     0
300
1:20
140
1.0
141
20.0
290
     0
  0
SCALE
  5
1C5
102
{ACAD_REACTORS
330
10C
102
}
330
10C
100
AcDbScale
 70
     0
300
1:30
140
1.0
141
30.0
290
     0
  0
SCALE
  5
1C6
102
{ACAD_REACTORS
330
10C
102
}
330
10C
100
AcDbScale
 70
     0
300
1:40
140
1.0
141
40.0
290
     0
  0
SCALE
  5
1C7
102
{ACAD_REACTORS
330
10C
102
}
330
10C
100
AcDbScale
 70
     0
300
1:50
140
1.0
141
50.0
290
     0
  0
SCALE
  5
1C8
102
{ACAD_REACTORS
330
10C
102
}
330
10C
100
AcDbScale
 70
     0
300
1:100
140
1.0
141
100.0
290
     0
  0
SCALE
  5
1C9
102
{ACAD_REACTORS
330
10C
102
}
330
10C
100
AcDbScale
 70
     0
300
2:1
140
2.0
141
1.0
290
     0
  0
SCALE
  5
1CA
102
{ACAD_REACTORS
330
10C
102
}
330
10C
100
AcDbScale
 70
     0
300
4:1
140
4.0
141
1.0
290
     0
  0
SCALE
  5
1CB
102
{ACAD_REACTORS
330
10C
102
}
330
10C
100
AcDbScale
 70
     0
300
8:1
140
8.0
141
1.0
290
     0
  0
SCALE
  5
1CC
102
{ACAD_REACTORS
330
10C
102
}
330
10C
100
AcDbScale
 70
     0
300
10:1
140
10.0
141
1.0
290
     0
  0
SCALE
  5
1CD
102
{ACAD_REACTORS
330
10C
102
}
330
10C
100
AcDbScale
 70
     0
300
100:1
140
100.0
141
1.0
290
     0
  0
ACDBSECTIONVIEWSTYLE
  5
21A
102
{ACAD_XDICTIONARY
360
234
102
}
102
{ACAD_REACTORS
330
219
102
}
330
219
100
AcDbModelDocViewStyle
 70
     0
  3
Metric50
290
     0
100
AcDbSectionViewStyle
 70
     0
 71
     0
 90
      102
 71
     1
340
11
 62
   256
 40
5.0
340
0
340
0
 62
   256
 40
5.0
300
I, O, Q, S, X, Z
 40
10.0
 90
        0
 40
2.5
 90
        0
 71
     2
340
16
 90
       25
 62
   256
340
16
 90
       50
 62
   256
 40
5.0
 40
2.5
 40
5.0
 71
     3
340
11
 62
   256
 40
5.0
 90
        0
 40
15.0
 90
        1
300
%<\AcVar ViewSectionStartId>%-%<\AcVar ViewSectionEndId>% (%<\AcVar ViewScale \f "%sn">%)
 71
     4
 62
   256
 62
   257
300
ANSI31
 40
1.0
 90
        0
290
     0
290
     0
 90
        6
 40
0.0
 40
1.570796326794896
 40
0.2617993877991494
 40
1.308996938995747
 40
-0.2617993877991494
 40
1.832595714594046
  0
TABLESTYLE
  5
7F
102
{ACAD_XDICTIONARY
360
162
102
}
102
{ACAD_REACTORS
330
7E
102
}
330
7E
100
AcDbTableStyle
280
     0
  3
Standard
 70
     0
 71
     0
 40
1.5
 41
1.5
280
     0
281
     0
  7
Standard
140
4.5
170
     2
 62
     0
 63
     7
283
     0
 90
      512
 91
        0
  1

274
    -2
284
     1
 64
     0
275
    -2
285
     1
 65
     0
276
    -2
286
     1
 66
     0
277
    -2
287
     1
 67
     0
278
    -2
288
     1
 68
     0
279
    -2
289
     1
 69
     0
  7
Standard
140
6.0
170
     5
 62
     0
 63
     7
283
     0
 90
      512
 91
        0
  1

274
    -2
284
     1
 64
     0
275
    -2
285
     1
 65
     0
276
    -2
286
     1
 66
     0
277
    -2
287
     1
 67
     0
278
    -2
288
     1
 68
     0
279
    -2
289
     1
 69
     0
  7
Standard
140
4.5
170
     5
 62
     0
 63
     7
283
     0
 90
      512
 91
        0
  1

274
    -2
284
     1
 64
     0
275
    -2
285
     1
 65
     0
276
    -2
286
     1
 66
     0
277
    -2
287
     1
 67
     0
278
    -2
288
     1
 68
     0
279
    -2
289
     1
 69
     0
  0
VISUALSTYLE
  5
F5
102
{ACAD_REACTORS
330
EF
102
}
330
EF
100
AcDbVisualStyle
  2
2dWireframe
 70
     4
177
     3
291
     0
 70
    58
 90
        0
176
     1
 90
        2
176
     1
 90
        1
176
     1
 90
        0
176
     1
 40
0.6
176
     1
 40
30.0
176
     1
 62
     7
420
 16777215
176
     1
 90
        1
176
     1
 90
        4
176
     1
 62
     7
176
     1
 62
   257
176
     1
 90
        1
176
     1
 90
        1
176
     1
 40
1.0
176
     1
 90
        0
176
     1
 62
   257
176
     1
 40
1.0
176
     1
 90
        1
176
     1
 90
        6
176
     1
 90
        2
176
     1
 62
     7
176
     1
 90
        5
176
     1
 90
        0
176
     1
 90
        0
176
     1
290
     0
176
     1
 90
        1
176
     1
 40
0.0
176
     1
 90
        0
176
     1
290
     1
176
     1
290
     1
176
     1
290
     0
176
     1
290
     0
176
     1
290
     0
176
     1
290
     0
176
     1
290
     0
176
     1
290
     0
176
     1
290
     0
176
     1
 90
       50
176
     1
 40
0.0
176
     1
 40
1.0
176
     1
 90
        0
176
     1
 62
    18
420
        0
176
     1
 90
       50
176
     1
 90
        3
176
     1
 62
     5
420
      255
176
     1
290
     0
176
     1
 90
       50
176
     1
 90
       50
176
     1
 90
       50
176
     1
290
     0
176
     1
 90
       50
176
     1
 62
   256
176
     0
 40
1.0
176
     0
 90
        2
176
     1
  1
strokes_ogs.tif
176
     1
290
     0
176
     1
 40
1.0
176
     1
 40
1.0
176
     1
  0
VISUALSTYLE
  5
F4
102
{ACAD_REACTORS
330
EF
102
}
330
EF
100
AcDbVisualStyle
  2
Basic
 70
     7
177
     3
291
     1
 70
    58
 90
        1
176
     1
 90
        0
176
     1
 90
        1
176
     1
 90
        0
176
     1
 40
0.6
176
     1
 40
30.0
176
     1
 62
     7
420
 16777215
176
     1
 90
        0
176
     1
 90
        4
176
     1
 62
     7
176
     1
 62
   257
176
     1
 90
        1
176
     1
 90
        1
176
     1
 40
1.0
176
     1
 90
        8
176
     1
 62
     7
176
     1
 40
1.0
176
     1
 90
        1
176
     1
 90
        6
176
     1
 90
        2
176
     1
 62
     7
176
     1
 90
        5
176
     1
 90
        0
176
     1
 90
        0
176
     1
290
     0
176
     1
 90
        1
176
     1
 40
0.0
176
     1
 90
        0
176
     1
290
     0
176
     1
290
     1
176
     1
290
     1
176
     1
290
     0
176
     1
290
     0
176
     1
290
     0
176
     1
290
     0
176
     1
290
     0
176
     1
290
     0
176
     1
 90
       50
176
     1
 40
0.0
176
     1
 40
1.0
176
     1
 90
        0
176
     1
 62
    18
420
        0
176
     1
 90
       50
176
     1
 90
        3
176
     1
 62
     5
420
      255
176
     1
290
     0
176
     1
 90
       50
176
     1
 90
       50
176
     1
 90
       50
176
     1
290
     0
176
     1
 90
       50
176
     1
 62
   256
176
     0
 40
1.0
176
     0
 90
        2
176
     1
  1
strokes_ogs.tif
176
     1
290
     0
176
     1
 40
1.0
176
     1
 40
1.0
176
     1
  0
VISUALSTYLE
  5
FB
102
{ACAD_REACTORS
330
EF
102
}
330
EF
100
AcDbVisualStyle
  2
Brighten
 70
    12
177
     3
291
     1
 70
    58
 90
        2
176
     1
 90
        2
176
     1
 90
        1
176
     1
 90
        0
176
     1
 40
0.6
176
     1
 40
30.0
176
     1
 62
     7
420
 16777215
176
     1
 90
        1
176
     1
 90
        4
176
     1
 62
     7
176
     1
 62
   257
176
     1
 90
        1
176
     1
 90
        1
176
     1
 40
1.0
176
     1
 90
        8
176
     1
 62
     7
176
     1
 40
1.0
176
     1
 90
        1
176
     1
 90
        6
176
     1
 90
        2
176
     1
 62
     7
176
     1
 90
        5
176
     1
 90
        0
176
     1
 90
        0
176
     1
290
     0
176
     1
 90
        1
176
     1
 40
50.0
176
     1
 90
        0
176
     1
290
     0
176
     1
290
     1
176
     1
290
     1
176
     1
290
     0
176
     1
290
     0
176
     1
290
     0
176
     1
290
     0
176
     1
290
     0
176
     1
290
     0
176
     1
 90
       50
176
     1
 40
0.0
176
     1
 40
1.0
176
     1
 90
        0
176
     1
 62
    18
420
        0
176
     1
 90
       50
176
     1
 90
        3
176
     1
 62
     5
420
      255
176
     1
290
     0
176
     1
 90
       50
176
     1
 90
       50
176
     1
 90
       50
176
     1
290
     0
176
     1
 90
       50
176
     1
 62
   256
176
     0
 40
1.0
176
     0
 90
        2
176
     1
  1
strokes_ogs.tif
176
     1
290
     0
176
     1
 40
1.0
176
     1
 40
1.0
176
     1
  0
VISUALSTYLE
  5
FF
102
{ACAD_REACTORS
330
EF
102
}
330
EF
100
AcDbVisualStyle
  2
ColorChange
 70
    16
177
     3
291
     1
 70
    58
 90
        2
176
     1
 90
        2
176
     1
 90
        3
176
     1
 90
        0
176
     1
 40
0.6
176
     1
 40
30.0
176
     1
 62
     8
420
  8421504
176
     1
 90
        1
176
     1
 90
        4
176
     1
 62
     7
176
     1
 62
   257
176
     1
 90
        1
176
     1
 90
        1
176
     1
 40
1.0
176
     1
 90
        8
176
     1
 62
     8
420
  8421504
176
     1
 40
1.0
176
     1
 90
        1
176
     1
 90
        6
176
     1
 90
        2
176
     1
 62
     7
176
     1
 90
        5
176
     1
 90
        0
176
     1
 90
        0
176
     1
290
     0
176
     1
 90
        1
176
     1
 40
0.0
176
     1
 90
        0
176
     1
290
     0
176
     1
290
     1
176
     1
290
     1
176
     1
290
     0
176
     1
290
     0
176
     1
290
     0
176
     1
290
     0
176
     1
290
     0
176
     1
290
     0
176
     1
 90
       50
176
     1
 40
0.0
176
     1
 40
1.0
176
     1
 90
        0
176
     1
 62
    18
420
        0
176
     1
 90
       50
176
     1
 90
        3
176
     1
 62
     5
420
      255
176
     1
290
     0
176
     1
 90
       50
176
     1
 90
       50
176
     1
 90
       50
176
     1
290
     0
176
     1
 90
       50
176
     1
 62
   256
176
     0
 40
1.0
176
     0
 90
        2
176
     1
  1
strokes_ogs.tif
176
     1
290
     0
176
     1
 40
1.0
176
     1
 40
1.0
176
     1
  0
VISUALSTYLE
  5
F8
102
{ACAD_REACTORS
330
EF
102
}
330
EF
100
AcDbVisualStyle
  2
Conceptual
 70
     9
177
     3
291
     0
 70
    58
 90
        3
176
     1
 90
        2
176
     1
 90
        1
176
     1
 90
        0
176
     1
 40
0.6
176
     1
 40
30.0
176
     1
 62
     7
420
 16777215
176
     1
 90
        2
176
     1
 90
        2
176
     1
 62
     7
176
     1
 62
   257
176
     1
 90
        1
176
     1
 90
        1
176
     1
 40
40.0
176
     1
 90
        8
176
     1
 62
     7
176
     1
 40
1.0
176
     1
 90
        1
176
     1
 90
        6
176
     1
 90
        2
176
     1
 62
     7
176
     1
 90
        3
176
     1
 90
        0
176
     1
 90
        0
176
     1
290
     0
176
     1
 90
        1
176
     1
 40
0.0
176
     1
 90
        0
176
     1
290
     0
176
     1
290
     1
176
     1
290
     1
176
     1
290
     0
176
     1
290
     0
176
     1
290
     0
176
     1
290
     0
176
     1
290
     0
176
     1
290
     0
176
     1
 90
       50
176
     1
 40
0.0
176
     1
 40
1.0
176
     1
 90
        0
176
     1
 62
    18
420
        0
176
     1
 90
       50
176
     1
 90
        3
176
     1
 62
     5
420
      255
176
     1
290
     0
176
     1
 90
       50
176
     1
 90
       50
176
     1
 90
       50
176
     1
290
     0
176
     1
 90
       50
176
     1
 62
   256
176
     0
 40
1.0
176
     0
 90
        2
176
     1
  1
strokes_ogs.tif
176
     1
290
     0
176
     1
 40
1.0
176
     1
 40
1.0
176
     1
  0
VISUALSTYLE
  5
FA
102
{ACAD_REACTORS
330
EF
102
}
330
EF
100
AcDbVisualStyle
  2
Dim
 70
    11
177
     3
291
     1
 70
    58
 90
        2
176
     1
 90
        2
176
     1
 90
        1
176
     1
 90
        0
176
     1
 40
0.6
176
     1
 40
30.0
176
     1
 62
     7
420
 16777215
176
     1
 90
        1
176
     1
 90
        4
176
     1
 62
     7
176
     1
 62
   257
176
     1
 90
        1
176
     1
 90
        1
176
     1
 40
1.0
176
     1
 90
        8
176
     1
 62
     7
176
     1
 40
1.0
176
     1
 90
        1
176
     1
 90
        6
176
     1
 90
        2
176
     1
 62
     7
176
     1
 90
        5
176
     1
 90
        0
176
     1
 90
        0
176
     1
290
     0
176
     1
 90
        1
176
     1
 40
-50.0
176
     1
 90
        0
176
     1
290
     0
176
     1
290
     1
176
     1
290
     1
176
     1
290
     0
176
     1
290
     0
176
     1
290
     0
176
     1
290
     0
176
     1
290
     0
176
     1
290
     0
176
     1
 90
       50
176
     1
 40
0.0
176
     1
 40
1.0
176
     1
 90
        0
176
     1
 62
    18
420
        0
176
     1
 90
       50
176
     1
 90
        3
176
     1
 62
     5
420
      255
176
     1
290
     0
176
     1
 90
       50
176
     1
 90
       50
176
     1
 90
       50
176
     1
290
     0
176
     1
 90
       50
176
     1
 62
   256
176
     0
 40
1.0
176
     0
 90
        2
176
     1
  1
strokes_ogs.tif
176
     1
290
     0
176
     1
 40
1.0
176
     1
 40
1.0
176
     1
  0
VISUALSTYLE
  5
1E6
102
{ACAD_REACTORS
330
EF
102
}
330
EF
100
AcDbVisualStyle
  2
EdgeColorOff
 70
    22
177
     3
291
     1
 70
    58
 90
        2
176
     0
 90
        2
176
     0
 90
        0
176
     0
 90
        0
176
     0
 40
0.6
176
     0
 40
30.0
176
     0
 62
     7
420
 16777215
176
     0
 90
        1
176
     0
 90
        4
176
     0
 62
     7
176
     0
 62
   257
176
     0
 90
        1
176
     0
 90
        1
176
     0
 40
1.0
176
     0
 90
        8
176
     2
 62
     7
176
     0
 40
1.0
176
     0
 90
        1
176
     0
 90
        6
176
     0
 90
        2
176
     0
 62
     7
176
     0
 90
        5
176
     0
 90
        0
176
     0
 90
        0
176
     0
290
     0
176
     0
 90
        1
176
     0
 40
0.0
176
     0
 90
        0
176
     0
290
     0
176
     1
290
     1
176
     1
290
     1
176
     1
290
     0
176
     1
290
     0
176
     1
290
     0
176
     1
290
     0
176
     1
290
     0
176
     1
290
     0
176
     1
 90
       50
176
     1
 40
0.0
176
     1
 40
1.0
176
     1
 90
        0
176
     1
 62
    18
420
        0
176
     1
 90
       50
176
     1
 90
        3
176
     1
 62
     5
420
      255
176
     1
290
     0
176
     1
 90
       50
176
     1
 90
       50
176
     1
 90
       50
176
     1
290
     0
176
     1
 90
       50
176
     1
 62
   256
176
     0
 40
1.0
176
     0
 90
        2
176
     1
  1
strokes_ogs.tif
176
     1
290
     0
176
     1
 40
1.0
176
     1
 40
1.0
176
     1
  0
VISUALSTYLE
  5
FE
102
{ACAD_REACTORS
330
EF
102
}
330
EF
100
AcDbVisualStyle
  2
Facepattern
 70
    15
177
     3
291
     1
 70
    58
 90
        2
176
     1
 90
        2
176
     1
 90
        1
176
     1
 90
        0
176
     1
 40
0.6
176
     1
 40
30.0
176
     1
 62
     7
420
 16777215
176
     1
 90
        1
176
     1
 90
        4
176
     1
 62
     7
176
     1
 62
   257
176
     1
 90
        1
176
     1
 90
        1
176
     1
 40
1.0
176
     1
 90
        8
176
     1
 62
     7
176
     1
 40
1.0
176
     1
 90
        1
176
     1
 90
        6
176
     1
 90
        2
176
     1
 62
     7
176
     1
 90
        5
176
     1
 90
        0
176
     1
 90
        0
176
     1
290
     0
176
     1
 90
        1
176
     1
 40
0.0
176
     1
 90
        0
176
     1
290
     0
176
     1
290
     1
176
     1
290
     1
176
     1
290
     0
176
     1
290
     0
176
     1
290
     0
176
     1
290
     0
176
     1
290
     0
176
     1
290
     0
176
     1
 90
       50
176
     1
 40
0.0
176
     1
 40
1.0
176
     1
 90
        0
176
     1
 62
    18
420
        0
176
     1
 90
       50
176
     1
 90
        3
176
     1
 62
     5
420
      255
176
     1
290
     0
176
     1
 90
       50
176
     1
 90
       50
176
     1
 90
       50
176
     1
290
     0
176
     1
 90
       50
176
     1
 62
   256
176
     0
 40
1.0
176
     0
 90
        2
176
     1
  1
strokes_ogs.tif
176
     1
290
     0
176
     1
 40
1.0
176
     1
 40
1.0
176
     1
  0
VISUALSTYLE
  5
F0
102
{ACAD_REACTORS
330
EF
102
}
330
EF
100
AcDbVisualStyle
  2
Flat
 70
     0
177
     3
291
     1
 70
    58
 90
        2
176
     1
 90
        1
176
     1
 90
        1
176
     1
 90
        2
176
     1
 40
0.6
176
     1
 40
30.0
176
     1
 62
     7
420
 16777215
176
     1
 90
        0
176
     1
 90
        0
176
     1
 62
     7
176
     1
 62
   257
176
     1
 90
        1
176
     1
 90
        1
176
     1
 40
1.0
176
     1
 90
        8
176
     1
 62
     7
176
     1
 40
1.0
176
     1
 90
        1
176
     1
 90
        6
176
     1
 90
        2
176
     1
 62
     7
176
     1
 90
        5
176
     1
 90
        0
176
     1
 90
        0
176
     1
290
     0
176
     1
 90
       13
176
     1
 40
0.0
176
     1
 90
        0
176
     1
290
     0
176
     1
290
     1
176
     1
290
     1
176
     1
290
     0
176
     1
290
     0
176
     1
290
     0
176
     1
290
     0
176
     1
290
     0
176
     1
290
     0
176
     1
 90
       50
176
     1
 40
0.0
176
     1
 40
1.0
176
     1
 90
        0
176
     1
 62
    18
420
        0
176
     1
 90
       50
176
     1
 90
        3
176
     1
 62
     5
420
      255
176
     1
290
     0
176
     1
 90
       50
176
     1
 90
       50
176
     1
 90
       50
176
     1
290
     0
176
     1
 90
       50
176
     1
 62
   256
176
     0
 40
1.0
176
     0
 90
        2
176
     1
  1
strokes_ogs.tif
176
     1
290
     0
176
     1
 40
1.0
176
     1
 40
1.0
176
     1
  0
VISUALSTYLE
  5
F1
102
{ACAD_REACTORS
330
EF
102
}
330
EF
100
AcDbVisualStyle
  2
FlatWithEdges
 70
     1
177
     3
291
     1
 70
    58
 90
        2
176
     1
 90
        1
176
     1
 90
        1
176
     1
 90
        2
176
     1
 40
0.6
176
     1
 40
30.0
176
     1
 62
     7
420
 16777215
176
     1
 90
        1
176
     1
 90
        0
176
     1
 62
     7
176
     1
 62
   257
176
     1
 90
        1
176
     1
 90
        1
176
     1
 40
1.0
176
     1
 90
        0
176
     1
 62
   257
176
     1
 40
1.0
176
     1
 90
        1
176
     1
 90
        6
176
     1
 90
        2
176
     1
 62
     7
176
     1
 90
        5
176
     1
 90
        0
176
     1
 90
        0
176
     1
290
     0
176
     1
 90
       13
176
     1
 40
0.0
176
     1
 90
        0
176
     1
290
     0
176
     1
290
     1
176
     1
290
     1
176
     1
290
     0
176
     1
290
     0
176
     1
290
     0
176
     1
290
     0
176
     1
290
     0
176
     1
290
     0
176
     1
 90
       50
176
     1
 40
0.0
176
     1
 40
1.0
176
     1
 90
        0
176
     1
 62
    18
420
        0
176
     1
 90
       50
176
     1
 90
        3
176
     1
 62
     5
420
      255
176
     1
290
     0
176
     1
 90
       50
176
     1
 90
       50
176
     1
 90
       50
176
     1
290
     0
176
     1
 90
       50
176
     1
 62
   256
176
     0
 40
1.0
176
     0
 90
        2
176
     1
  1
strokes_ogs.tif
176
     1
290
     0
176
     1
 40
1.0
176
     1
 40
1.0
176
     1
  0
VISUALSTYLE
  5
F2
102
{ACAD_REACTORS
330
EF
102
}
330
EF
100
AcDbVisualStyle
  2
Gouraud
 70
     2
177
     3
291
     1
 70
    58
 90
        2
176
     1
 90
        2
176
     1
 90
        1
176
     1
 90
        2
176
     1
 40
0.6
176
     1
 40
30.0
176
     1
 62
     7
420
 16777215
176
     1
 90
        0
176
     1
 90
        0
176
     1
 62
     7
176
     1
 62
   257
176
     1
 90
        1
176
     1
 90
        1
176
     1
 40
1.0
176
     1
 90
        0
176
     1
 62
     7
176
     1
 40
1.0
176
     1
 90
        1
176
     1
 90
        6
176
     1
 90
        2
176
     1
 62
     7
176
     1
 90
        5
176
     1
 90
        0
176
     1
 90
        0
176
     1
290
     0
176
     1
 90
       13
176
     1
 40
0.0
176
     1
 90
        0
176
     1
290
     0
176
     1
290
     1
176
     1
290
     1
176
     1
290
     0
176
     1
290
     0
176
     1
290
     0
176
     1
290
     0
176
     1
290
     0
176
     1
290
     0
176
     1
 90
       50
176
     1
 40
0.0
176
     1
 40
1.0
176
     1
 90
        0
176
     1
 62
    18
420
        0
176
     1
 90
       50
176
     1
 90
        3
176
     1
 62
     5
420
      255
176
     1
290
     0
176
     1
 90
       50
176
     1
 90
       50
176
     1
 90
       50
176
     1
290
     0
176
     1
 90
       50
176
     1
 62
   256
176
     0
 40
1.0
176
     0
 90
        2
176
     1
  1
strokes_ogs.tif
176
     1
290
     0
176
     1
 40
1.0
176
     1
 40
1.0
176
     1
  0
VISUALSTYLE
  5
F3
102
{ACAD_REACTORS
330
EF
102
}
330
EF
100
AcDbVisualStyle
  2
GouraudWithEdges
 70
     3
177
     3
291
     1
 70
    58
 90
        2
176
     1
 90
        2
176
     1
 90
        1
176
     1
 90
        2
176
     1
 40
0.6
176
     1
 40
30.0
176
     1
 62
     7
420
 16777215
176
     1
 90
        1
176
     1
 90
        0
176
     1
 62
     7
176
     1
 62
   257
176
     1
 90
        1
176
     1
 90
        1
176
     1
 40
1.0
176
     1
 90
        0
176
     1
 62
   257
176
     1
 40
1.0
176
     1
 90
        1
176
     1
 90
        6
176
     1
 90
        2
176
     1
 62
     7
176
     1
 90
        5
176
     1
 90
        0
176
     1
 90
        0
176
     1
290
     0
176
     1
 90
       13
176
     1
 40
0.0
176
     1
 90
        0
176
     1
290
     0
176
     1
290
     1
176
     1
290
     1
176
     1
290
     0
176
     1
290
     0
176
     1
290
     0
176
     1
290
     0
176
     1
290
     0
176
     1
290
     0
176
     1
 90
       50
176
     1
 40
0.0
176
     1
 40
1.0
176
     1
 90
        0
176
     1
 62
    18
420
        0
176
     1
 90
       50
176
     1
 90
        3
176
     1
 62
     5
420
      255
176
     1
290
     0
176
     1
 90
       50
176
     1
 90
       50
176
     1
 90
       50
176
     1
290
     0
176
     1
 90
       50
176
     1
 62
   256
176
     0
 40
1.0
176
     0
 90
        2
176
     1
  1
strokes_ogs.tif
176
     1
290
     0
176
     1
 40
1.0
176
     1
 40
1.0
176
     1
  0
VISUALSTYLE
  5
F7
102
{ACAD_REACTORS
330
EF
102
}
330
EF
100
AcDbVisualStyle
  2
Hidden
 70
     6
177
     3
291
     0
 70
    58
 90
        1
176
     1
 90
        2
176
     1
 90
        2
176
     1
 90
        0
176
     1
 40
0.6
176
     1
 40
30.0
176
     1
 62
     7
420
 16777215
176
     1
 90
        2
176
     1
 90
        2
176
     1
 62
     7
176
     1
 62
   257
176
     1
 90
        2
176
     1
 90
        1
176
     1
 40
40.0
176
     1
 90
        0
176
     1
 62
   257
176
     1
 40
1.0
176
     1
 90
        1
176
     1
 90
        6
176
     1
 90
        2
176
     1
 62
     7
176
     1
 90
        3
176
     1
 90
        0
176
     1
 90
        0
176
     1
290
     0
176
     1
 90
        1
176
     1
 40
0.0
176
     1
 90
        0
176
     1
290
     0
176
     1
290
     1
176
     1
290
     1
176
     1
290
     0
176
     1
290
     0
176
     1
290
     0
176
     1
290
     0
176
     1
290
     0
176
     1
290
     0
176
     1
 90
       50
176
     1
 40
0.0
176
     1
 40
1.0
176
     1
 90
        0
176
     1
 62
    18
420
        0
176
     1
 90
       50
176
     1
 90
        3
176
     1
 62
     5
420
      255
176
     1
290
     0
176
     1
 90
       50
176
     1
 90
       50
176
     1
 90
       50
176
     1
290
     0
176
     1
 90
       50
176
     1
 62
   256
176
     0
 40
1.0
176
     0
 90
        2
176
     1
  1
strokes_ogs.tif
176
     1
290
     0
176
     1
 40
1.0
176
     1
 40
1.0
176
     1
  0
VISUALSTYLE
  5
1E4
102
{ACAD_REACTORS
330
EF
102
}
330
EF
100
AcDbVisualStyle
  2
JitterOff
 70
    20
177
     3
291
     1
 70
    58
 90
        2
176
     0
 90
        2
176
     0
 90
        0
176
     0
 90
        0
176
     0
 40
0.6
176
     0
 40
30.0
176
     0
 62
     7
420
 16777215
176
     0
 90
        1
176
     0
 90
        4
176
     0
 62
     7
176
     0
 62
   257
176
     0
 90
        1
176
     0
 90
        1
176
     0
 40
1.0
176
     0
 90
       10
176
     2
 62
     7
176
     0
 40
1.0
176
     0
 90
        1
176
     0
 90
        6
176
     0
 90
        2
176
     0
 62
     7
176
     0
 90
        5
176
     0
 90
        0
176
     0
 90
        0
176
     0
290
     0
176
     0
 90
        1
176
     0
 40
0.0
176
     0
 90
        0
176
     0
290
     0
176
     1
290
     1
176
     1
290
     1
176
     1
290
     0
176
     1
290
     0
176
     1
290
     0
176
     1
290
     0
176
     1
290
     0
176
     1
290
     0
176
     1
 90
       50
176
     1
 40
0.0
176
     1
 40
1.0
176
     1
 90
        0
176
     1
 62
    18
420
        0
176
     1
 90
       50
176
     1
 90
        3
176
     1
 62
     5
420
      255
176
     1
290
     0
176
     1
 90
       50
176
     1
 90
       50
176
     1
 90
       50
176
     1
290
     0
176
     1
 90
       50
176
     1
 62
   256
176
     0
 40
1.0
176
     0
 90
        2
176
     1
  1
strokes_ogs.tif
176
     1
290
     0
176
     1
 40
1.0
176
     1
 40
1.0
176
     1
  0
VISUALSTYLE
  5
FD
102
{ACAD_REACTORS
330
EF
102
}
330
EF
100
AcDbVisualStyle
  2
Linepattern
 70
    14
177
     3
291
     1
 70
    58
 90
        2
176
     1
 90
        2
176
     1
 90
        1
176
     1
 90
        0
176
     1
 40
0.6
176
     1
 40
30.0
176
     1
 62
     7
420
 16777215
176
     1
 90
        1
176
     1
 90
        4
176
     1
 62
     7
176
     1
 62
   257
176
     1
 90
        7
176
     1
 90
        7
176
     1
 40
1.0
176
     1
 90
        8
176
     1
 62
     7
176
     1
 40
1.0
176
     1
 90
        1
176
     1
 90
        6
176
     1
 90
        2
176
     1
 62
     7
176
     1
 90
        5
176
     1
 90
        0
176
     1
 90
        0
176
     1
290
     0
176
     1
 90
        1
176
     1
 40
0.0
176
     1
 90
        0
176
     1
290
     0
176
     1
290
     1
176
     1
290
     1
176
     1
290
     0
176
     1
290
     0
176
     1
290
     0
176
     1
290
     0
176
     1
290
     0
176
     1
290
     0
176
     1
 90
       50
176
     1
 40
0.0
176
     1
 40
1.0
176
     1
 90
        0
176
     1
 62
    18
420
        0
176
     1
 90
       50
176
     1
 90
        3
176
     1
 62
     5
420
      255
176
     1
290
     0
176
     1
 90
       50
176
     1
 90
       50
176
     1
 90
       50
176
     1
290
     0
176
     1
 90
       50
176
     1
 62
   256
176
     0
 40
1.0
176
     0
 90
        2
176
     1
  1
strokes_ogs.tif
176
     1
290
     0
176
     1
 40
1.0
176
     1
 40
1.0
176
     1
  0
VISUALSTYLE
  5
1E5
102
{ACAD_REACTORS
330
EF
102
}
330
EF
100
AcDbVisualStyle
  2
OverhangOff
 70
    21
177
     3
291
     1
 70
    58
 90
        2
176
     0
 90
        2
176
     0
 90
        0
176
     0
 90
        0
176
     0
 40
0.6
176
     0
 40
30.0
176
     0
 62
     7
420
 16777215
176
     0
 90
        1
176
     0
 90
        4
176
     0
 62
     7
176
     0
 62
   257
176
     0
 90
        1
176
     0
 90
        1
176
     0
 40
1.0
176
     0
 90
        9
176
     2
 62
     7
176
     0
 40
1.0
176
     0
 90
        1
176
     0
 90
        6
176
     0
 90
        2
176
     0
 62
     7
176
     0
 90
        5
176
     0
 90
        0
176
     0
 90
        0
176
     0
290
     0
176
     0
 90
        1
176
     0
 40
0.0
176
     0
 90
        0
176
     0
290
     0
176
     1
290
     1
176
     1
290
     1
176
     1
290
     0
176
     1
290
     0
176
     1
290
     0
176
     1
290
     0
176
     1
290
     0
176
     1
290
     0
176
     1
 90
       50
176
     1
 40
0.0
176
     1
 40
1.0
176
     1
 90
        0
176
     1
 62
    18
420
        0
176
     1
 90
       50
176
     1
 90
        3
176
     1
 62
     5
420
      255
176
     1
290
     0
176
     1
 90
       50
176
     1
 90
       50
176
     1
 90
       50
176
     1
290
     0
176
     1
 90
       50
176
     1
 62
   256
176
     0
 40
1.0
176
     0
 90
        2
176
     1
  1
strokes_ogs.tif
176
     1
290
     0
176
     1
 40
1.0
176
     1
 40
1.0
176
     1
  0
VISUALSTYLE
  5
F9
102
{ACAD_REACTORS
330
EF
102
}
330
EF
100
AcDbVisualStyle
  2
Realistic
 70
     8
177
     3
291
     0
 70
    58
 90
        2
176
     1
 90
        3
176
     1
 90
        0
176
     1
 90
        2
176
     1
 40
0.6
176
     1
 40
30.0
176
     1
 62
     7
420
 16777215
176
     1
 90
        0
176
     1
 90
        0
176
     1
 62
     7
176
     1
 62
   257
176
     1
 90
        1
176
     1
 90
        1
176
     1
 40
1.0
176
     1
 90
        8
176
     1
 62
   257
176
     1
 40
1.0
176
     1
 90
        1
176
     1
 90
        6
176
     1
 90
        2
176
     1
 62
     7
176
     1
 90
        3
176
     1
 90
        0
176
     1
 90
        0
176
     1
290
     0
176
     1
 90
       13
176
     1
 40
0.0
176
     1
 90
        0
176
     1
290
     0
176
     1
290
     1
176
     1
290
     1
176
     1
290
     0
176
     1
290
     0
176
     1
290
     0
176
     1
290
     0
176
     1
290
     0
176
     1
290
     0
176
     1
 90
       50
176
     1
 40
0.0
176
     1
 40
1.0
176
     1
 90
        0
176
     1
 62
    18
420
        0
176
     1
 90
       50
176
     1
 90
        3
176
     1
 62
     5
420
      255
176
     1
290
     0
176
     1
 90
       50
176
     1
 90
       50
176
     1
 90
       50
176
     1
290
     0
176
     1
 90
       50
176
     1
 62
   256
176
     0
 40
1.0
176
     0
 90
        2
176
     1
  1
strokes_ogs.tif
176
     1
290
     0
176
     1
 40
1.0
176
     1
 40
1.0
176
     1
  0
VISUALSTYLE
  5
1F3
102
{ACAD_REACTORS
330
EF
102
}
330
EF
100
AcDbVisualStyle
  2
Shaded
 70
    27
177
     3
291
     0
 70
    58
 90
        2
176
     1
 90
        2
176
     1
 90
        1
176
     1
 90
        2
176
     1
 40
0.6
176
     1
 40
30.0
176
     1
 62
     7
420
 16777215
176
     1
 90
        0
176
     1
 90
        4
176
     1
 62
     7
176
     1
 62
   257
176
     1
 90
        1
176
     1
 90
        1
176
     1
 40
1.0
176
     1
 90
        8
176
     1
 62
   257
176
     1
 40
1.0
176
     1
 90
        1
176
     1
 90
        6
176
     1
 90
        2
176
     1
 62
     8
420
  7895160
176
     1
 90
        3
176
     1
 90
        0
176
     1
 90
        0
176
     1
290
     0
176
     1
 90
        5
176
     1
 40
0.0
176
     1
 90
        0
176
     1
290
     0
176
     1
290
     1
176
     1
290
     1
176
     1
290
     0
176
     1
290
     0
176
     1
290
     0
176
     1
290
     0
176
     1
290
     0
176
     1
290
     0
176
     1
 90
       50
176
     1
 40
0.0
176
     1
 40
1.0
176
     1
 90
        0
176
     1
 62
    18
420
        0
176
     1
 90
       50
176
     1
 90
        3
176
     1
 62
     5
420
      255
176
     1
290
     0
176
     1
 90
       50
176
     1
 90
       50
176
     1
 90
       50
176
     1
290
     0
176
     1
 90
       50
176
     1
 62
   256
176
     0
 40
1.0
176
     0
 90
        2
176
     1
  1
strokes_ogs.tif
176
     1
290
     0
176
     1
 40
1.0
176
     1
 40
1.0
176
     1
  0
VISUALSTYLE
  5
1F2
102
{ACAD_REACTORS
330
EF
102
}
330
EF
100
AcDbVisualStyle
  2
Shaded with edges
 70
    26
177
     3
291
     0
 70
    58
 90
        2
176
     1
 90
        2
176
     1
 90
        1
176
     1
 90
        2
176
     1
 40
0.6
176
     1
 40
30.0
176
     1
 62
     7
420
 16777215
176
     1
 90
        1
176
     1
 90
       10
176
     1
 62
     7
176
     1
 62
   257
176
     1
 90
        2
176
     1
 90
        1
176
     1
 40
1.0
176
     1
 90
        8
176
     1
 62
   257
176
     1
 40
1.0
176
     1
 90
        1
176
     1
 90
        6
176
     1
 90
        2
176
     1
 62
     7
176
     1
 90
        3
176
     1
 90
        0
176
     1
 90
        0
176
     1
290
     0
176
     1
 90
        5
176
     1
 40
0.0
176
     1
 90
        0
176
     1
290
     0
176
     1
290
     1
176
     1
290
     1
176
     1
290
     0
176
     1
290
     0
176
     1
290
     0
176
     1
290
     0
176
     1
290
     0
176
     1
290
     0
176
     1
 90
       50
176
     1
 40
0.0
176
     1
 40
1.0
176
     1
 90
        0
176
     1
 62
    18
420
        0
176
     1
 90
       50
176
     1
 90
        3
176
     1
 62
     5
420
      255
176
     1
290
     0
176
     1
 90
       50
176
     1
 90
       50
176
     1
 90
       50
176
     1
290
     0
176
     1
 90
       50
176
     1
 62
   256
176
     0
 40
1.0
176
     0
 90
        2
176
     1
  1
strokes_ogs.tif
176
     1
290
     0
176
     1
 40
1.0
176
     1
 40
1.0
176
     1
  0
VISUALSTYLE
  5
1EF
102
{ACAD_REACTORS
330
EF
102
}
330
EF
100
AcDbVisualStyle
  2
Shades of Gray
 70
    23
177
     3
291
     0
 70
    58
 90
        2
176
     1
 90
        2
176
     1
 90
        3
176
     1
 90
        0
176
     1
 40
0.6
176
     1
 40
30.0
176
     1
 62
     7
420
 16777215
176
     1
 90
        2
176
     1
 90
        2
176
     1
 62
     7
176
     1
 62
     7
176
     1
 90
        1
176
     1
 90
        1
176
     1
 40
40.0
176
     1
 90
        8
176
     1
 62
     7
176
     1
 40
1.0
176
     1
 90
        1
176
     1
 90
        6
176
     1
 90
        2
176
     1
 62
     7
176
     1
 90
        3
176
     1
 90
        0
176
     1
 90
        0
176
     1
290
     0
176
     1
 90
        1
176
     1
 40
0.0
176
     1
 90
        0
176
     1
290
     0
176
     1
290
     1
176
     1
290
     1
176
     1
290
     0
176
     1
290
     0
176
     1
290
     0
176
     1
290
     0
176
     1
290
     0
176
     1
290
     0
176
     1
 90
       50
176
     1
 40
0.0
176
     1
 40
1.0
176
     1
 90
        0
176
     1
 62
    18
420
        0
176
     1
 90
       50
176
     1
 90
        3
176
     1
 62
     5
420
      255
176
     1
290
     0
176
     1
 90
       50
176
     1
 90
       50
176
     1
 90
       50
176
     1
290
     0
176
     1
 90
       50
176
     1
 62
   256
176
     0
 40
1.0
176
     0
 90
        2
176
     1
  1
strokes_ogs.tif
176
     1
290
     0
176
     1
 40
1.0
176
     1
 40
1.0
176
     1
  0
VISUALSTYLE
  5
1F0
102
{ACAD_REACTORS
330
EF
102
}
330
EF
100
AcDbVisualStyle
  2
Sketchy
 70
    24
177
     3
291
     0
 70
    58
 90
        1
176
     1
 90
        2
176
     1
 90
        2
176
     1
 90
        0
176
     1
 40
0.6
176
     1
 40
30.0
176
     1
 62
     7
420
 16777215
176
     1
 90
        2
176
     1
 90
        2
176
     1
 62
     7
176
     1
 62
     7
176
     1
 90
        1
176
     1
 90
        1
176
     1
 40
40.0
176
     1
 90
       11
176
     1
 62
     7
176
     1
 40
1.0
176
     1
 90
        1
176
     1
 90
        6
176
     1
 90
        2
176
     1
 62
     7
176
     1
 90
        6
176
     1
 90
        0
176
     1
 90
        0
176
     1
290
     0
176
     1
 90
        1
176
     1
 40
0.0
176
     1
 90
        0
176
     1
290
     0
176
     1
290
     1
176
     1
290
     1
176
     1
290
     0
176
     1
290
     0
176
     1
290
     0
176
     1
290
     0
176
     1
290
     0
176
     1
290
     0
176
     1
 90
       50
176
     1
 40
0.0
176
     1
 40
1.0
176
     1
 90
        0
176
     1
 62
    18
420
        0
176
     1
 90
       50
176
     1
 90
        3
176
     1
 62
     5
420
      255
176
     1
290
     0
176
     1
 90
       50
176
     1
 90
       50
176
     1
 90
       50
176
     1
290
     0
176
     1
 90
       50
176
     1
 62
   256
176
     0
 40
1.0
176
     0
 90
        2
176
     1
  1
strokes_ogs.tif
176
     1
290
     0
176
     1
 40
1.0
176
     1
 40
1.0
176
     1
  0
VISUALSTYLE
  5
FC
102
{ACAD_REACTORS
330
EF
102
}
330
EF
100
AcDbVisualStyle
  2
Thicken
 70
    13
177
     3
291
     1
 70
    58
 90
        2
176
     1
 90
        2
176
     1
 90
        1
176
     1
 90
        0
176
     1
 40
0.6
176
     1
 40
30.0
176
     1
 62
     7
420
 16777215
176
     1
 90
        1
176
     1
 90
        4
176
     1
 62
     7
176
     1
 62
   257
176
     1
 90
        1
176
     1
 90
        1
176
     1
 40
1.0
176
     1
 90
       12
176
     1
 62
     7
176
     1
 40
1.0
176
     1
 90
        1
176
     1
 90
        6
176
     1
 90
        2
176
     1
 62
     7
176
     1
 90
        5
176
     1
 90
        0
176
     1
 90
        0
176
     1
290
     0
176
     1
 90
        1
176
     1
 40
0.0
176
     1
 90
        0
176
     1
290
     0
176
     1
290
     1
176
     1
290
     1
176
     1
290
     0
176
     1
290
     0
176
     1
290
     0
176
     1
290
     0
176
     1
290
     0
176
     1
290
     0
176
     1
 90
       50
176
     1
 40
0.0
176
     1
 40
1.0
176
     1
 90
        0
176
     1
 62
    18
420
        0
176
     1
 90
       50
176
     1
 90
        3
176
     1
 62
     5
420
      255
176
     1
290
     0
176
     1
 90
       50
176
     1
 90
       50
176
     1
 90
       50
176
     1
290
     0
176
     1
 90
       50
176
     1
 62
   256
176
     0
 40
1.0
176
     0
 90
        2
176
     1
  1
strokes_ogs.tif
176
     1
290
     0
176
     1
 40
1.0
176
     1
 40
1.0
176
     1
  0
VISUALSTYLE
  5
F6
102
{ACAD_REACTORS
330
EF
102
}
330
EF
100
AcDbVisualStyle
  2
Wireframe
 70
     5
177
     3
291
     0
 70
    58
 90
        0
176
     1
 90
        2
176
     1
 90
        0
176
     1
 90
        0
176
     1
 40
0.6
176
     1
 40
30.0
176
     1
 62
     7
420
 16777215
176
     1
 90
        1
176
     1
 90
        4
176
     1
 62
     7
176
     1
 62
   257
176
     1
 90
        1
176
     1
 90
        1
176
     1
 40
1.0
176
     1
 90
        0
176
     1
 62
   257
176
     1
 40
1.0
176
     1
 90
        1
176
     1
 90
        6
176
     1
 90
        2
176
     1
 62
     7
176
     1
 90
        3
176
     1
 90
        0
176
     1
 90
        0
176
     1
290
     0
176
     1
 90
        1
176
     1
 40
0.0
176
     1
 90
        0
176
     1
290
     0
176
     1
290
     1
176
     1
290
     1
176
     1
290
     0
176
     1
290
     0
176
     1
290
     0
176
     1
290
     0
176
     1
290
     0
176
     1
290
     0
176
     1
 90
       50
176
     1
 40
0.0
176
     1
 40
1.0
176
     1
 90
        0
176
     1
 62
    18
420
        0
176
     1
 90
       50
176
     1
 90
        3
176
     1
 62
     5
420
      255
176
     1
290
     0
176
     1
 90
       50
176
     1
 90
       50
176
     1
 90
       50
176
     1
290
     0
176
     1
 90
       50
176
     1
 62
   256
176
     0
 40
1.0
176
     0
 90
        2
176
     1
  1
strokes_ogs.tif
176
     1
290
     0
176
     1
 40
1.0
176
     1
 40
1.0
176
     1
  0
VISUALSTYLE
  5
1F1
102
{ACAD_REACTORS
330
EF
102
}
330
EF
100
AcDbVisualStyle
  2
X-Ray
 70
    25
177
     3
291
     0
 70
    58
 90
        2
176
     1
 90
        2
176
     1
 90
        1
176
     1
 90
        1
176
     1
 40
0.5
176
     1
 40
30.0
176
     1
 62
     7
420
 16777215
176
     1
 90
        1
176
     1
 90
        0
176
     1
 62
     7
176
     1
 62
   257
176
     1
 90
        1
176
     1
 90
        1
176
     1
 40
1.0
176
     1
 90
        8
176
     1
 62
     7
176
     1
 40
1.0
176
     1
 90
        1
176
     1
 90
        6
176
     1
 90
        2
176
     1
 62
     7
176
     1
 90
        3
176
     1
 90
        0
176
     1
 90
        0
176
     1
290
     0
176
     1
 90
       13
176
     1
 40
0.0
176
     1
 90
        0
176
     1
290
     0
176
     1
290
     1
176
     1
290
     1
176
     1
290
     0
176
     1
290
     0
176
     1
290
     0
176
     1
290
     0
176
     1
290
     0
176
     1
290
     0
176
     1
 90
       50
176
     1
 40
0.0
176
     1
 40
1.0
176
     1
 90
        0
176
     1
 62
    18
420
        0
176
     1
 90
       50
176
     1
 90
        3
176
     1
 62
     5
420
      255
176
     1
290
     0
176
     1
 90
       50
176
     1
 90
       50
176
     1
 90
       50
176
     1
290
     0
176
     1
 90
       50
176
     1
 62
   256
176
     0
 40
1.0
176
     0
 90
        2
176
     1
  1
strokes_ogs.tif
176
     1
290
     0
176
     1
 40
1.0
176
     1
 40
1.0
176
     1
  0
DICTIONARYVAR
  5
146
102
{ACAD_REACTORS
330
5E
102
}
330
5E
100
DictionaryVariables
280
     0
  1
1:1
  0
DICTIONARYVAR
  5
145
102
{ACAD_REACTORS
330
5E
102
}
330
5E
100
DictionaryVariables
280
     0
  1
STANDARD
  0
DICTIONARYVAR
  5
84
102
{ACAD_REACTORS
330
5E
102
}
330
5E
100
DictionaryVariables
280
     0
  1
STANDARD
  0
DICTIONARYVAR
  5
227
102
{ACAD_REACTORS
330
5E
102
}
330
5E
100
DictionaryVariables
280
     0
  1
Metric50
  0
DICTIONARYVAR
  5
228
102
{ACAD_REACTORS
330
5E
102
}
330
5E
100
DictionaryVariables
280
     0
  1
Metric50
  0
DICTIONARYVAR
  5
5F
102
{ACAD_REACTORS
330
5E
102
}
330
5E
100
DictionaryVariables
280
     0
  1
2
  0
DICTIONARYVAR
  5
1D2A
102
{ACAD_REACTORS
330
5E
102
}
330
5E
100
DictionaryVariables
280
     0
  1
1
  0
DICTIONARYVAR
  5
63
102
{ACAD_REACTORS
330
5E
102
}
330
5E
100
DictionaryVariables
280
     0
  1
1
  0
DICTIONARYVAR
  5
23E4
102
{ACAD_REACTORS
330
5E
102
}
330
5E
100
DictionaryVariables
280
     0
  1
BYLAYER
  0
DICTIONARYVAR
  5
23E3
102
{ACAD_REACTORS
330
5E
102
}
330
5E
100
DictionaryVariables
280
     0
  1
ByLayer
  0
DICTIONARYVAR
  5
1AE
102
{ACAD_REACTORS
330
5E
102
}
330
5E
100
DictionaryVariables
280
     0
  1
0
  0
DICTIONARYVAR
  5
1AF
102
{ACAD_REACTORS
330
5E
102
}
330
5E
100
DictionaryVariables
280
     0
  1
0
  0
DICTIONARY
  5
25F
102
{ACAD_REACTORS
330
25E
102
}
330
25E
100
AcDbDictionary
280
     1
281
     1
  0
DICTIONARY
  5
236
330
21C
100
AcDbDictionary
280
     1
281
     1
  3
ACAD_XREC_ROUNDTRIP
360
24E3
  0
DICTIONARY
  5
205
330
22
100
AcDbDictionary
280
     1
281
     1
  3
AcPublish_PlotSettingsOverride
360
1D29
  0
DICTIONARY
  5
1F9
330
ED
100
AcDbDictionary
280
     1
281
     1
  3
FBXASSET
360
1FA
  0
DICTIONARY
  5
1F7
330
EC
100
AcDbDictionary
280
     1
281
     1
  3
FBXASSET
360
1F8
  0
DICTIONARY
  5
173
330
EE
100
AcDbDictionary
280
     1
281
     1
  3
BUMPTILE
360
175
  3
DIFFUSETILE
360
174
  3
FBXASSET
360
1FB
  3
OPACITYTILE
360
176
  3
REFLECTIONTILE
360
177
  0
DICTIONARY
  5
234
330
21A
100
AcDbDictionary
280
     1
281
     1
  3
ACAD_XREC_ROUNDTRIP
360
24E2
  0
DICTIONARY
  5
162
330
7F
100
AcDbDictionary
280
     1
281
     1
  3
ACAD_ROUNDTRIP_2008_TABLESTYLE_CELLSTYLEMAP
360
24E1
  0
XRECORD
  5
24E3
102
{ACAD_REACTORS
330
236
102
}
330
236
100
AcDbXrecord
280
     1
102
DISPLAYNAME
  1
Metric50
102
FLAGS
 90
        0
  0
PLOTSETTINGS
  5
1D29
102
{ACAD_REACTORS
330
205
102
}
330
205
100
AcDbPlotSettings
  1

  2
AutoCAD PDF (General Documentation).pc3
  4
ISO_A2_(594.00_x_420.00_MM)
  6

 40
5.793749809265136
 41
17.79375076293945
 42
5.79376220703125
 43
17.79376220703125
 44
594.0
 45
420.0
 46
11.54999923706054
 47
-13.65000009536743
 48
0.0
 49
0.0
140
0.0
141
0.0
142
1.0
143
1.0
 70
 11936
 72
     1
 73
     1
 74
     0
  7

 75
     0
147
0.5863585907705097
 76
     0
 77
     2
 78
   300
148
91.69864575153178
149
172.5597709673514
1001
ACAD_PSEXT
1000
AutoCAD PDF (General Documentation).pc3
1000
DWG To PDF
1000
Файл
1000

1070
     0
  0
XRECORD
  5
1FA
102
{ACAD_REACTORS
330
1F9
102
}
330
1F9
100
AcDbXrecord
280
     1
 70
     1
 90
429727718
  1
D62C5603-E3A1-4AEA-B7FB-FE5D8D0755AF
310
504B03040A0000080000CC70623B3DEE336E79000000790000001B0000006175746F6465736B2D64657369676E2D7061636B6167652E786D6C3C3F786D6C2076657273696F6E3D22312E302220656E636F64696E673D227574662D3822203F3E3C666F726D6174733E3C666F726D61743E687474703A2F2F736368656D612E
310
6175746F6465736B2E636F6D2F64657369676E2D7061636B6167652F323030393C2F666F726D61743E3C2F666F726D6174733E504B0304140006080800CC70623BD486FD9CA0000000F4000000130000005B436F6E74656E745F54797065735D2E786D6C7D8EC10E82300C865F65E91D8A1E8C310C0EEA1BF002731658846E
310
D98AC1B77784ABF1D8FE5FBFBF75BBCE937A534CCEB38643598122B6FEE978D0B0485F9C41B54DDD7D022595594E1A469170414C76A4D9A4D207E29CF43ECE46F218070CC6BECC4078ACAA135ACF422C856C0E68EA1BF5669944DDD7BCDE7B1F8E415D77AECB980613C2E4AC91FC167A2B244592486606FC29C8FD7F045B9A
310
EF7053A7E60B504B0304140006080800CC70623B853B8169EB0000007C01000008000000636F72652E786D6C8D90416EC3201045AF62CDB6C206821CC7C244919D9CA01740401C94182C03558F5F9C3852BBEB6A467FFE9B197D7EFC9E1EC5975982F5AE035262288C535E5B377690E21535501C055FBC8FBF6C503839990E
310
5619041F179FE64D52DE45E362569DD7661365082642A11EB9E920A89B99642953CC8E702F67A9EE7234257977194EC9EAE275C4EABCCF5EAD5940D4AC6F0E35A568B8F43562CD7046CD199FD07E60174276A7BE677B5EADB0E0D14EEFFB6A31321A0D82627C4084204C3F096B71DD52F6819B16635EADF63F509AF53FA164
310
5DDCD1EDDD17164090FCC8732078B56691CB33A85CD7DCC40F504B0304140006080800CC70623B55019EA25F0000007C00000007000000636E782E786D6C4DCB3B0E80201045D1AD90E915ED2CF8AC45050C11660C8261F98AB1B07AC9C97D42D718D865D3E909258CFD00CCE24AC6E326A164D74DC0B4128928FF32603847
310
2BA13128B1252AC747C6BAB984FC68F0B87FE8960A5C09FE86CFB69FBA01504B0304140006080800CC70623BDBABAAF470010000D40300000C0000006662782F636F72652E786D6CC553D16E823014FD95A6AF4B694182CC941A83FA05FB810A9511A125A5257EFE2E82712ECEB8A7F100CD39F7F69E734AF9FADC366850B6
310
AF8DCE7018308C942E4C59EB2AC3DE1D498AD15A706B8CFB56869196ADCAF00863C12B6B7C374385D14E6907A836A59A41D9F7CA615434B0C8705F7CAA5606D23BA8E84F41278B93AC54100640439DE0BDB320004D43C63716C7C399D30917DCFBBA9CD9BA8469F5B156168B24CED3F7248AC8769F27244EB73B92EED8862C
310
B7F13E0C179B3C8F979C8ECD82BBBABDAA2BAC924E9558448CBD9330242CFA08E3154B5651FCC6D215639C8EE5774DBE2B5F6CF2B5768B68963BB5F5588420E442FC700B1139D4CB01F450C1E918227C2E09DF070D8140C84E1E9AAB8F1340832A9CB13130A5F1376A908D57309505ECF2A0DF179C4E9D30F5B239B87E3823
310
7A79C6F31DE1A8A5AEC08474B03C7837EAE4938639B44E5932B833D2C6B6B279CDC613877FA26EE21F4A2A4C63EC7F29A2F301D1F9F7A0E37D145F504B0304140006080800CC70623B9C113CC27E0000009D0000000B0000006662782F636E782E786D6C4DCCDF0A83201C86E15B91DFB94BFB330DD428C8FB886521330DA7
310
6397BF1A1DECE883878F57749FCDA1B7892F1BBC047A23808C7F84D9FA55424E0BE6803A256208E9EF06C84F9B91703228B1C690F78B66B34CD9A5439DF5CF0BFBF65E35BCA1B8D6A5C6F540381E886698B5741C695F9503EBA150A2F8958E3DC3EA0B504B0304140006080800CC70623B7DF2F77C2A010000120200003100
310
00006662782F41393633353835312D344632462D344230382D423046372D3739314545314133324237412F636F72652E786D6C8D51DB8EC22014FC15C2939B0D2DB4B45643319AE817EC0F6041255A68B86CFCFC856D4D76DF7CE190393373060EDB3DC707F856CE6B6B7A480A0C81328395DA5C7B18C3057510EC3873D686
310
3F34088C18550F330C39BB3A1BA7051AAC09CA84841A2BD5020AEF55806078A44B0FFD7053A328440C89E1EFC52486BBB8AA8214A99D789CF9E05200300FC927E4FB4D5B375D43103D5527440FB843077C5AA3F5861C8F645F5787F59E95B390B318B55CE45AA638FAA2957BD7248B390B7A7CC51F9C124149C82B8C378810
310
84AB2F42B7B8DD56F413775B8C5999E9FF4471926F8AA236A1AE96B8B3CC434E5839373893369E1FAF30EA395917409EB7F26AF8801C171837A4A6AC9C89E9F9C9B1A58BA30FD6A5EF5DDDCF894B9AD9B6A59C957943A9FCAE2FD5BC4DFE03504B0304140006080800CC70623BAD7543B64E01000033030000300000006662
310
782F41393633353835312D344632462D344230382D423046372D3739314545314133324237412F636E782E786D6CD593CD6EC32010845F0571AD6CE3D48AD20813A9873E410FBD12D82434182C7EAAE6EDBB2424CD25871E7B41D6EC30B3FA84F9E67BB2E40B4234DE8DB46F1925E094D7C6ED479AD3AE5951B2113C789FEE
310
6C943839C1488B4C05DF079FE72A69D8C96C13AAD6B8631503449F83828872B949AC57D26200B826A308D316B4064D6E46FCDA41C05550DC9E483A00797BFD207EFB092A45DE9514C1BBD22178396BD39D891265658C238DEA00936C654E5E433CB65A26D9F6EDB5EBC14EBF49A45CB856E66048291F6939A9A81BB5C89177
310
38143CA680F4AA299D66A042CEB3354A2684DC9D8D178FE0D9B8B41CAAD720F880EE7EF93C0C18769E099ECC04D5A102C8049A8A05632F4DDF376CF1DE0F6BB65C2F8627B65A33C6BB62177CEBBDAD973006829F89F22E814B54F4BC2BE347F8AA8F681390B50FA73F804400B5F542E796F19FF974E7F78DB802FE05E20750
310
4B0304140006080800CC70623BE75B7789680500003C100000340000006662782F41393633353835312D344632462D344230382D423046372D3739314545314133324237412F6F626A656374732E786D6CAD575B8F9B3818FD2B887D06C22499CB8AA1CA655245D5B455A356FB305264C061D8018C6C3393D95FBFC7600890
310
A4CD5EF210B0B1BFEBF98E3F7B1FF6596ABC522E1296DF9BAE3D320D9A872C4AF2F8DE2CE5CEBA358D0FBEC719939D65A691938CDE9B6ADAF4BD98B3B2D05311DD91329583D9D5FC0F438434A7A611A644887B5384CF34233629258BA878B12322891DEFF6B66BD70BFB62634E8AE781D082709A4B588AF91C528CDA28B73F
310
1C998EEF39EABBEFA97FBD6A7C7E9553F9D3D79FE442923C3C523610337627CB87ABE99D359D4CC6D6E4FACAB5E6ABF9D2726FC6A3C5F56271377BB88362213924694B38DD99FE47C48627A1E7D49F5A8BB5E1A74C0A599ED3B0F21F1E56366B89112D681E218F0915D0D6F17AD41FBA2A369DCF6335D62ABBD39779D5DDD1
310
11D4D8DE3CBB96B2E04FB8202E41051754A1AA8E8F76B4C6DFE810B580B1547F4B84911149794252234D024EF8BBE963A95AE27B3D310A9D5C215C7960FAEE415ED75694C6AFB17BCACA5D99A60A9AA65F217B0BFC53292ACB92BF283FAD0D3621576592CB5BED907C2FA8E9DF794E35E97BEA31BED21FEB401ABB94C44839
310
DCACBF0E1C5DA8DA5B2F4DFFD32AD86F543D9E565E7056502E157C00AD2671CD534549AB752FCA9CDA00677A313F04E51B22FF19E57B300579E3C97EB29F682D92935CEC18CF901B7B54FD8C51F362B56FC72FE0B3C1EAE335EDCCBF5AEC39ADB17DC238973F804BA5E6F6BFE7AF1FB32E523BE9F3BD571418E3631DCA4D48
310
5250CF639223210A9446CA30052EDF057BD35F8329C1ECD84552BF0DC8D18BE7BCE23BFE6BD960AB4A7DE79923A103BEBD80F911CBAA2C60DB19B01CF164A5583B772EE6D3FFA56666CBCDA74DC97724A48F9A58967497E489C4D979006FD7A05E227A1EBDD0F737C623387A9C844D3709995625106D157315F8B8392CD4E0
310
A0B9A720C4BE9829CEF37EA1E13111214D53925356365ADA634861B52519DD27A00AEB808EAF0628E6F435519D446F45CF2C9CF5214F0A15B2F6D06B79DA3EE3CBF7F56780D2F4E7EF73A0F5E5B02A38D07DC852C6B7C1FBB6664213E0C39E3EBA7FF4E1AD23EA2829407C85E586727488B751B2DB9502BC7B228A3FD68B6E
310
A65A22397E690AA8D158D7E404EC8CDA235CC3B7D1898680131CEC2CDF2638C65196279577750F15884AEE19F94199155B92B13297978469D4F8D358DF0AEF7631E28DC8F0D9F437D5D39A83B2231A1D52D543813A824EF8D44BCFF2FA6A31BD1E8DAD87F1CCB526B3879935BF59CDADD5C37479BB1CDD4CA7B3556B516589
310
EF352754B706114D9C885EC9131DE6EFEB43D99AFE2391C2F958179413D7CFEF6B1B6DB1E7600F00DE6E5C67454A339A4BA2E0FBA85ED26F045D454F463DBFCE484C2F90F2E5E3666003662ED8F755951A7D1BECD5B30B550B2785C8E7320B7292A4838DDA71BBC863ED7613CAF659337A3354231D4FF4A182A54904C2898C
310
98B28C4AD0CE056CCF332A80986E571EE9DBC305BB5FEB7E509220A58D25CF042D712A806AC0AD0C657FDEF80D2D9CEAA2EE4D1C76F60BFE74219A06527D6F82DF6412526107381E55E353090704D085B52408A8913C4ED159D79BDA71BB4BC506F4831350EB6F975CD22D69BF7AC49B91A2C0A9DDA3D5CA36AD20FC478E37
310
E61844E2352865EBCB61A275A65283CAAA9DD27703B4102F5AF51EF5F573B75CBB5AD38BC845F7A49F82A0966A49C2E3EA5EA0ECD326CD965F1DB402C6FA8B51A4658C5C5E2EC9E214602E55810345408596591009A82E7E7FFACA19EEA299B14A0081A705CB3296EBC14CDF658DCD336EA6D1136881AAEB87B81AB9EE53D5
310
F5EB8BC8362082DA24122F98680A4E7930C01A0079749CEA14382A0783E5EBA5A10F8C098456A03D6A4AEB6BB881E2513747552A5DB22C7EDAF83BD5528081A365F7FF06504B0304140006080000CC70623B000000000000000000000000350000006662782F41393633353835312D344632462D344230382D423046372D37
310
39314545314133324237412F76657274696365732E62696E504B0304140006080800CC70623BF270F1330600000004000000360000006662782F41393633353835312D344632462D344230382D423046372D3739314545314133324237412F747269616E676C65732E62696E636660600000504B0304140006080000CC7062
310
3B000000000000000000000000370000006662782F41393633353835312D344632462D344230382D423046372D3739314545314133324237412F617474726962757465732E62696E504B0304140006080800CC70623B08DA0BD19000000041010000360000006662782F41393633353835312D344632462D344230382D4230
310
46372D3739314545314133324237412F6469726563746F72792E786D6C858F410AC3201045AF22B36F53E9A60B35CBEEBAE80D244E44489C6234F4F835464A48035D0DF398FF9F8AF63D0E6CC63039F212F8F9020C7D47C6792B21C5FE7403D62A1188E2E60C98D7234A5830286103A55745067B9D86B8A3CF9C7F90C11DE6
310
07FB144396D7B6A82D282E9A152AD114D5EF2CB866EEE831B8EEA07A7BB5A8D7D61A2BAAEB7FD5F70921FF497D00504B0304140006080800CC70623BEDD1DC58FD000000A00100003B0000006662782F41393633353835312D344632462D344230382D423046372D3739314545314133324237412F7265736F75726365732F
310
636F72652E786D6C8D504B6E833010BD0A9A6D65B00922041947112427E8052C33A156828DFCA97AFC9A40A576D7CDCCE87D344F8F9FBFE667F689CE6B6B3A6039850C8DB2A336530731DC4903D95970676DF82583CCC8193B5861107C72362E3BA4AC096842428D1D7107A5F7182053CF7474E0D507CE32973124857FE48B
310
540F3961CEF244279DE03EB81420DB9EAC1384436FA353E879B1B182C7A8C75DA3C7F453DF353A1075D537A7BA6464B8F535A99AE14A9A2BBD90E350DD183B5CFABE3AF262350B1EF4FC9351399401471025A527C218A1E53BAB5A5AB765F5469B96525EACF23FA6B88CFF34456DC2A1DCE36E360F82A5202F42F062ED2BAD
310
579969AFDD8A6F504B010214000A0000080000CC70623B3DEE336E79000000790000001B00000000000000000000000000000000006175746F6465736B2D64657369676E2D7061636B6167652E786D6C504B01021400140006080800CC70623BD486FD9CA0000000F40000001300000000000000000000000000B20000005B
310
436F6E74656E745F54797065735D2E786D6C504B01021400140006080800CC70623B853B8169EB0000007C010000080000000000000000000000000083010000636F72652E786D6C504B01021400140006080800CC70623B55019EA25F0000007C000000070000000000000000000000000094020000636E782E786D6C504B
310
01021400140006080800CC70623BDBABAAF470010000D40300000C00000000000000000000000000180300006662782F636F72652E786D6C504B01021400140006080800CC70623B9C113CC27E0000009D0000000B00000000000000000000000000B20400006662782F636E782E786D6C504B01021400140006080800CC70
310
623B7DF2F77C2A010000120200003100000000000000000000000000590500006662782F41393633353835312D344632462D344230382D423046372D3739314545314133324237412F636F72652E786D6C504B01021400140006080800CC70623BAD7543B64E010000330300003000000000000000000000000000D2060000
310
6662782F41393633353835312D344632462D344230382D423046372D3739314545314133324237412F636E782E786D6C504B01021400140006080800CC70623BE75B7789680500003C10000034000000000000000000000000006E0800006662782F41393633353835312D344632462D344230382D423046372D3739314545
310
314133324237412F6F626A656374732E786D6C504B01021400140006080000CC70623B0000000000000000000000003500000000000000000000000000280E00006662782F41393633353835312D344632462D344230382D423046372D3739314545314133324237412F76657274696365732E62696E504B01021400140006
310
080800CC70623BF270F133060000000400000036000000000000000000000000007B0E00006662782F41393633353835312D344632462D344230382D423046372D3739314545314133324237412F747269616E676C65732E62696E504B01021400140006080000CC70623B0000000000000000000000003700000000000000
310
000000000000D50E00006662782F41393633353835312D344632462D344230382D423046372D3739314545314133324237412F617474726962757465732E62696E504B01021400140006080800CC70623B08DA0BD1900000004101000036000000000000000000000000002A0F00006662782F41393633353835312D344632
310
462D344230382D423046372D3739314545314133324237412F6469726563746F72792E786D6C504B01021400140006080800CC70623BEDD1DC58FD000000A00100003B000000000000000000000000000E1000006662782F41393633353835312D344632462D344230382D423046372D3739314545314133324237412F7265
310
736F75726365732F636F72652E786D6C504B0506000000000E000E0080040000641100000000
  0
XRECORD
  5
1F8
102
{ACAD_REACTORS
330
1F7
102
}
330
1F7
100
AcDbXrecord
280
     1
 70
     1
 90
429727718
  1
30362254-06B7-45E0-A893-8CFA70E3D6BC
310
504B03040A0000080000CC70623B3DEE336E79000000790000001B0000006175746F6465736B2D64657369676E2D7061636B6167652E786D6C3C3F786D6C2076657273696F6E3D22312E302220656E636F64696E673D227574662D3822203F3E3C666F726D6174733E3C666F726D61743E687474703A2F2F736368656D612E
310
6175746F6465736B2E636F6D2F64657369676E2D7061636B6167652F323030393C2F666F726D61743E3C2F666F726D6174733E504B0304140006080800CC70623BD486FD9CA0000000F4000000130000005B436F6E74656E745F54797065735D2E786D6C7D8EC10E82300C865F65E91D8A1E8C310C0EEA1BF002731658846E
310
D98AC1B77784ABF1D8FE5FBFBF75BBCE937A534CCEB38643598122B6FEE978D0B0485F9C41B54DDD7D022595594E1A469170414C76A4D9A4D207E29CF43ECE46F218070CC6BECC4078ACAA135ACF422C856C0E68EA1BF5669944DDD7BCDE7B1F8E415D77AECB980613C2E4AC91FC167A2B244592486606FC29C8FD7F045B9A
310
EF7053A7E60B504B0304140006080800CC70623B1EC5D7A3EB0000007C01000008000000636F72652E786D6C8D90416EC3201045AF82665B6103C6756C6122AB4D4ED00B204C5C94182C03558F5F9C3852BBEB6A467FFE9B197D71FC9E6FE8CBACC17AD7032D0820E3B41FAD9B7A48F1820F808E52ACDEC75F36404ECDA687
310
4D0629A6D5A76597B477D1B89855E747B38B2A041301E95B6E7A08FAD3CCAA50296647B8168BD2573599823EBB0CA76447F43862C7BCCF5EAC59410E4DDD9C7973C2755553CCCFA4C603E3040F1565ED3B1FDE4E432BCA0D9622DAF9795FAF464533826484B498524CD807E51D79ED187F21878E10516EF63F505AC67F42C9
310
BA58B1FDDD071640D2FCC87D2045B96591CB3DA85CB7DCE40F504B0304140006080800CC70623B55019EA25F0000007C00000007000000636E782E786D6C4DCB3B0E80201045D1AD90E915ED2CF8AC45050C11660C8261F98AB1B07AC9C97D42D718D865D3E909258CFD00CCE24AC6E326A164D74DC0B4128928FF32603847
310
2BA13128B1252AC747C6BAB984FC68F0B87FE8960A5C09FE86CFB69FBA01504B0304140006080800CC70623B8C9102E971010000D40300000C0000006662782F636F72652E786D6CC5535B6E833010BC8AE5DF0A6C08340F1947A84D4ED00B38C6A128602363A31CBFCB234A53A551FA553EC09AD9F5CE8C31DB9E9B1AF5CA
310
7695D1198E428A91D2D214952E33ECDD315861B4E5CC1AE3BE9561A445A3323CC098B3D21ADFCE9034DA29ED00D5A6503328BA4E398C640D8B0C77F253352214DE4145770A5B214FA2546114020D759C75CE8200340D19DE981F0F6746269C33EFAB6266AB02A655C74A59CCF365BADC27CB5D902ED22848F6340DF238A141
310
BE88E2F57B92BFEDF23523433367AE6A2EEAA455C2A902F398D2751045018D3FA264435F3771F242571B4A1919CA6F9A7C5B3CD9E42BED16F12C776AEB308F40C848FC700B1139D4891EF410CEC810227CC6846F8386402064270EF5C5C709A05E49676C024C61FC95EA45ED154CA5211D1FF4FB8291A913A68E9B83EBBB33
310
E2A7673CDE118E5AE8124C0807CB8377834E366998436B950D7A7746DAD846D4CFD978E0F04FD455FC5D49D2D4C6FE9722321F10997F0F32DC47FE05504B0304140006080800CC70623BFFEA85907E0000009D0000000B0000006662782F636E782E786D6C4DCCD10A83201886E15B91FFDC95D95A811AB6F23E625948A6C3
310
E9D8E5AF46073BFAE0E1E365ED67B3E8ADC3CB78C7815C7240DA3DFC64DCC221C519D7805AC182F7F1EF06C88D9BE6703008B6049F9E274D7A1E938DBB5AE3D6131B2589BA0D3D965551E0B2EA732C9B9A624AAEB41E3A557677029960D9AFB4EF11165F504B0304140006080800CC70623B4FEEA4082C0100001202000031
310
0000006662782F39464131463745442D413632322D343644302D413938332D3331353338454246344243312F636F72652E786D6C8D515B6EC32010BC0AE2AB55850DD871ED0813254D72825EC00192A2C460F1A872FC42ED48ED5F7E00CDCECCCEB26C731F6FE05B39AFADE921293004CA082BB5B9F43086336A21D870E6AC
310
0D7F68109861543DCC30E4ECE26C9C164858139409093556AA051CBC570102714B8F1E7AF1A5C6A11862480C7F2DA6415C878B2A4891CA89C7990F2E050073937C42DE1DB7E4F87ED8A36D4329AA9B3D46DBAEAD504556557BD81DEBDD0761E52CE42C462D17B996298E3E6BE59E35C962CE821E1FF18553435012728A7187
310
0841987E927A8D9B35ADDF70BBC6989599FE4F1427F9A4286A132ABAC49D651EF234CD5CE04CDA78BA3DC2A8FB645D00B9DF8B57E215725C60BCA2A463E54C4CE327C7A65E1C7DB02E7DEFCBF594B864C5CA6CDBD49C957943E9FA5D5FBAF336F90F504B0304140006080800CC70623BAD7543B64E01000033030000300000
310
006662782F39464131463745442D413632322D343644302D413938332D3331353338454246344243312F636E782E786D6CD593CD6EC32010845F0571AD6CE3D48AD20813A9873E410FBD12D82434182C7EAAE6EDBB2424CD25871E7B41D6EC30B3FA84F9E67BB2E40B4234DE8DB46F1925E094D7C6ED479AD3AE5951B2113C
310
789FEE6C943839C1488B4C05DF079FE72A69D8C96C13AAD6B8631503449F83828872B949AC57D26200B826A308D316B4064D6E46FCDA41C05550DC9E483A00797BFD207EFB092A45DE9514C1BBD22178396BD39D891265658C238DEA00936C654E5E433CB65A26D9F6EDB5EBC14EBF49A45CB856E66048291F6939A9A81BB5
310
C8917738143CA680F4AA299D66A042CEB3354A2684DC9D8D178FE0D9B8B41CAAD720F880EE7EF93C0C18769E099ECC04D5A102C8049A8A05632F4DDF376CF1DE0F6BB65C2F8627B65A33C6BB62177CEBBDAD973006829F89F22E814B54F4BC2BE347F8AA8F681390B50FA73F804400B5F542E796F19FF974E7F78DB802FE05
310
E207504B0304140006080800CC70623B16AB87BA640500003C100000340000006662782F39464131463745442D413632322D343644302D413938332D3331353338454246344243312F6F626A656374732E786D6CAD575B6FA33818FD2B887DE6924B3BED8A326A92B68A663B534DD4D13E548A0C38942D60649B369D5FBFC7
310
600890A493BDE42160637FD7F31D7FF63E6FB3D478A55C242CBF3247B66B1A340F5994E4F19559CA8D75611A9F7D8F33263BCB4C232719BD32D5B4E97B316765A1A722BA21652A07B3B7B33F0D11D29C9A46981221AE4C113ED38CD8A4942CA2E2C58E882476BCD9DA23BB5ED8171B73523C0F841684D35CC252CCE79062D4
310
468DFA43D7747CCF51DF7D4FFDEB5593E3AB9CCA9FBEFE241792E4E19EB28198C968BAB8199F5D5A67D3E9C49A9E8F47D6EC76B6B0469F26EEFC7C3EBFBCBEB98462213924694B38DD98FE1D62C393D073EA4FADC5DAF04326852CCF6958F90F0F2B9BB5C48816348F90C7840A68EB78EDF68723159BCEE7891A6B95DDE9D3
310
BCEAEEE8086A6C6F9E5D4B59F0175C10A7A0820BAA5055C7473B5AE3CFDD452D602CD5DF12616444529E90D448938013FE6EFA58AA96F85E4F8C42275708571E98FE6827AF6B2B4AE3D7D83D64E5A64C53054DD3AF90BD06FEA9149565C94FCA0F6B834DC85599E4F2423B24DF0B6AFA979E534DFA9E7A4CC6FA631D486393
310
921829879BF5D781A373557BCB85E97FB90DB62B558F8795179C15944B051F40AB495CF35451D26A4727654E6D8033BD98EF82F21D91FF8AF2DD9982BCF1643BDD4EB516C9492E368C67C88DED563FC36D5EACF66DFF057C3658BDBFA69DF9578B3DA735B64F18C7F20770A9D45CFCF7FCF563D6456A277DBEF78A02637CA2
310
43B90A490AEAB94F72244481D24819A6C0E59B606BFA4B3025981DBB48EAB701D97BF19C577CC77F2D1B6C55A9EF3C732474C0B727303F625995056C3B02963D9EAC146BE78EC5FCEC7FA999EBC5EACBAAE41B12D27B4D2C0BBA49F244E2ECDC81B76B502F113D8F5EE8FB1BE3111CDD4FC2AA9B844CAB1288B68AB90A7CDC
310
1C166AB0D3DC5310625FCC14E779BFD0709F8890A629C9292B1B2DED31A4B0DA928CEE135085754027E3018A397D4D5427D15BD1330B677DC8934285AC3DF45A9EB68FF8F2B8FC0A509AFEECFD0FF2DE25CC6047F7214B195F07EFEB9A094D800F7BFAE8FED187B78EA8A3A400F115961BCAD1215E47C966530AF0EE8128FE
310
58CEBB996A8964FFA529A046635D9353B0336A8F700DDF46271A024E70B0B37C9DE01847591E54DED53D54202AB947E4076556AC49C6CA5C9E1226B7F1A7B1BE15DEED62C41B91E1B3E9AFAAA735036547343A925075041DF0A9979E893B391F8FCFA6967B3EFB644DCF6E5CEBFAE272625DCC6FAF3FB93793C5F90CE1EF57
310
407342756B10D1C489E8953CD1617E5CEECAD6F4EF8914CE5D5D504E5C3F1F9736DA62CFC11E00BCDDB8CC8A9466349744C1F75EBDA4DF09BA8A9E8C7A7E9991989E20E5DBDD6A6003664ED8F7A04A8DBE0DF6EAD9B9AA858342E47399053949D2C146EDB85DE4B176BB0965FBAC19BD19AA918E27FA50C1D22402E144464C
310
59462568E704B6E71915404CB72B8FF4EDE184DDAF753F284990D2C6926782963815403548A70C657FDEF80D2D9CEAA2AE4C1C76F60BFE74219A06527D6582DF6412526107381E55E353090704D085B52408D0933C4ED159D79BDA71BB4BC506F4831350EB6F979CD22D69BF7AC49B91A2C0A9DDA3D5CA36AD20FC478E37E6
310
1844E2352865EBCB6EA275A652E3836BE04EFB400BF1A2556F515F1FBB35B2AB35BD889C744FFA1004B5544B121E57F70215746DD2F5E2C1412B602CBF19455AC6C8E5E9922C4E01E65215385004546899059180EAFCF7A707CE7017CD8CDB0410789AB32C63B91E5CEBBBACB17AC6CD347A022D5075FD106377347AAABA7E
310
7D11590744509B44E205134DC1290F06580320F78E537D3D73540E06CB970B431F185308AD40BBD794D6D77003C5A36E8EAA54BA64597CD8F83BD552A080A365F7FF06504B0304140006080000CC70623B000000000000000000000000350000006662782F39464131463745442D413632322D343644302D413938332D3331
310
353338454246344243312F76657274696365732E62696E504B0304140006080800CC70623BF270F1330600000004000000360000006662782F39464131463745442D413632322D343644302D413938332D3331353338454246344243312F747269616E676C65732E62696E636660600000504B0304140006080000CC70623B
310
000000000000000000000000370000006662782F39464131463745442D413632322D343644302D413938332D3331353338454246344243312F617474726962757465732E62696E504B0304140006080800CC70623B08DA0BD19000000041010000360000006662782F39464131463745442D413632322D343644302D413938
310
332D3331353338454246344243312F6469726563746F72792E786D6C858F410AC3201045AF22B36F53E9A60B35CBEEBAE80D244E44489C6234F4F835464A48035D0DF398FF9F8AF63D0E6CC63039F212F8F9020C7D47C6792B21C5FE7403D62A1188E2E60C98D7234A5830286103A55745067B9D86B8A3CF9C7F90C11DE607
310
FB144396D7B6A82D282E9A152AD114D5EF2CB866EEE831B8EEA07A7BB5A8D7D61A2BAAEB7FD5F70921FF497D00504B0304140006080800CC70623B0D6EF93BFE000000A00100003B0000006662782F39464131463745442D413632322D343644302D413938332D3331353338454246344243312F7265736F75726365732F63
310
6F72652E786D6C8D50596E833010BD0A9ADFCA60B334011947A8694ED00B586642AC041B79A97AFC9A40A5F6AF3F33A3B7689E1E3F7DCD8FEC139DD7D6F4C0720A191A65476DA61E62B892236427C19DB5E1970C322367EC618541F0C9D9B8EC90B226A009093576C41D94DE63804C3DD2D18357379C652E63480A7FCF17A9
310
EE72C29CE5894E3AC17D702940B63D59270887DE46A7D0F36263058F518FBB468FE9A7BE6A7420864373B8D4873369AA8691FA421B3294352543C5CAF65C0F6FEF43CB8BD52C78D0F34F46E550061C419494B6843142CB0F5677F4B52BEB177AEC28E5C52AFF638ACBF84F53D42654E51E77B379102C05791282176B5F693D
310
CB4C7BED567C03504B010214000A0000080000CC70623B3DEE336E79000000790000001B00000000000000000000000000000000006175746F6465736B2D64657369676E2D7061636B6167652E786D6C504B01021400140006080800CC70623BD486FD9CA0000000F40000001300000000000000000000000000B20000005B
310
436F6E74656E745F54797065735D2E786D6C504B01021400140006080800CC70623B1EC5D7A3EB0000007C010000080000000000000000000000000083010000636F72652E786D6C504B01021400140006080800CC70623B55019EA25F0000007C000000070000000000000000000000000094020000636E782E786D6C504B
310
01021400140006080800CC70623B8C9102E971010000D40300000C00000000000000000000000000180300006662782F636F72652E786D6C504B01021400140006080800CC70623BFFEA85907E0000009D0000000B00000000000000000000000000B30400006662782F636E782E786D6C504B01021400140006080800CC70
310
623B4FEEA4082C0100001202000031000000000000000000000000005A0500006662782F39464131463745442D413632322D343644302D413938332D3331353338454246344243312F636F72652E786D6C504B01021400140006080800CC70623BAD7543B64E010000330300003000000000000000000000000000D5060000
310
6662782F39464131463745442D413632322D343644302D413938332D3331353338454246344243312F636E782E786D6C504B01021400140006080800CC70623B16AB87BA640500003C1000003400000000000000000000000000710800006662782F39464131463745442D413632322D343644302D413938332D3331353338
310
454246344243312F6F626A656374732E786D6C504B01021400140006080000CC70623B0000000000000000000000003500000000000000000000000000270E00006662782F39464131463745442D413632322D343644302D413938332D3331353338454246344243312F76657274696365732E62696E504B01021400140006
310
080800CC70623BF270F133060000000400000036000000000000000000000000007A0E00006662782F39464131463745442D413632322D343644302D413938332D3331353338454246344243312F747269616E676C65732E62696E504B01021400140006080000CC70623B0000000000000000000000003700000000000000
310
000000000000D40E00006662782F39464131463745442D413632322D343644302D413938332D3331353338454246344243312F617474726962757465732E62696E504B01021400140006080800CC70623B08DA0BD190000000410100003600000000000000000000000000290F00006662782F39464131463745442D413632
310
322D343644302D413938332D3331353338454246344243312F6469726563746F72792E786D6C504B01021400140006080800CC70623B0D6EF93BFE000000A00100003B000000000000000000000000000D1000006662782F39464131463745442D413632322D343644302D413938332D3331353338454246344243312F7265
310
736F75726365732F636F72652E786D6C504B0506000000000E000E0080040000641100000000
  0
XRECORD
  5
175
102
{ACAD_REACTORS
330
173
102
}
330
173
100
AcDbXrecord
280
     1
270
     1
271
     1
  0
XRECORD
  5
174
102
{ACAD_REACTORS
330
173
102
}
330
173
100
AcDbXrecord
280
     1
270
     1
271
     1
  0
XRECORD
  5
1FB
102
{ACAD_REACTORS
330
173
102
}
330
173
100
AcDbXrecord
280
     1
 70
     0
 90
1673772943
  1
ECE7A1D2-D628-4531-984C-D00F80459256
310
504B03040A0000080000CC70623B3DEE336E79000000790000001B0000006175746F6465736B2D64657369676E2D7061636B6167652E786D6C3C3F786D6C2076657273696F6E3D22312E302220656E636F64696E673D227574662D3822203F3E3C666F726D6174733E3C666F726D61743E687474703A2F2F736368656D612E
310
6175746F6465736B2E636F6D2F64657369676E2D7061636B6167652F323030393C2F666F726D61743E3C2F666F726D6174733E504B0304140006080800CC70623BD486FD9CA0000000F4000000130000005B436F6E74656E745F54797065735D2E786D6C7D8EC10E82300C865F65E91D8A1E8C310C0EEA1BF002731658846E
310
D98AC1B77784ABF1D8FE5FBFBF75BBCE937A534CCEB38643598122B6FEE978D0B0485F9C41B54DDD7D022595594E1A469170414C76A4D9A4D207E29CF43ECE46F218070CC6BECC4078ACAA135ACF422C856C0E68EA1BF5669944DDD7BCDE7B1F8E415D77AECB980613C2E4AC91FC167A2B244592486606FC29C8FD7F045B9A
310
EF7053A7E60B504B0304140006080800CC70623BD9DDAED0EC0000007C01000008000000636F72652E786D6C8D90416EC3201045AF82665B61836D9CD8C2444DD39CA01740405C94182C03558F5F9C3852BBEB6A467FFE9B197D7EF89E6EE8CB2CC17A37002D0820E394D7D68D03A478C17B4007C117EFE32F1B20272733C0
310
2A83E0E3E2D3BC49CABB685CCCAAF3DA6CA20CC14440EA969B0182FA34932C648AD911AEC52CD5558EA6A0CF2EC329598D1E47ACCEFBECC59A050463A7EA5833865FEBDD0E37353BE3EE8DBDE3F6786A48D375FBF6CC78B9C282473B3DEFABC5C86834888A900E538A49F5419B9EB47DD5BC907D4F082F57FB1F28CDFA9F50
310
B22ED6D5F6EE030B20687EE43E10BC5CB3C8E51E54AE6B6EE207504B0304140006080800CC70623B55019EA25F0000007C00000007000000636E782E786D6C4DCB3B0E80201045D1AD90E915ED2CF8AC45050C11660C8261F98AB1B07AC9C97D42D718D865D3E909258CFD00CCE24AC6E326A164D74DC0B4128928FF326038
310
472BA13128B1252AC747C6BAB984FC68F0B87FE8960A5C09FE86CFB69FBA01504B0304140006080800CC70623BA24EB22D72010000D40300000C0000006662782F636F72652E786D6CC5535B6E833010BC8AE5DF0A6C5E49888CA3A6694ED00B38E05014B091B1518EDFE511A5A9D228FD2A1F60CDEC7A67C6986DCE4D8D7A
310
69BA4AAB0C073EC548AA5C17952A33ECECD15B61B4E1CC686DBF9561A44423333CC098B3D268D7CE50AE9595CA02AA74216750749DB418E5352C32DCE59FB211BE70162ABA93DF8AFC244AE9073ED050C759670D0840D390E18DF9F1706664C23973AE2A66B62A605A75ACA4C13C4976E1364A12EF355A2EBD384AF65EFA96
310
BC7B8BED2EA6719AAE16FB8491A199335B351775B991C2CA02F390D2D40B028F861F41BCA68B7518BFD0D59A524686F29B26D7164F36B94AD9289CE54E6D1DE6010819891F6E21228B3AD1831EC219194284CF98F06DD01008846CC5A1BEF83801D4CBDC6A1303536877A57A513B0953A94FC707FDBE6064EA84A9E3E6E0FA
310
EE8CF0E9198F7784A316AA0413C2C2F2E0ECA0934D1AE6D05A69BCDE9E91D2A611F573361E38FC1375157F5752AE6B6DFE4B11990F88CCBF0719EE23FF02504B0304140006080800CC70623B408A7D3B7C0000009D0000000B0000006662782F636E782E786D6C4DCCD10A83201886E15B91FFDC552A92A0064DBC8F581632
310
D3703A76F9ABD1C18E3E78F878E5F0D9027ABBFCF2292AE86E2D20171F69F6715550CB827B40839639A5F2770314A7CD293819B45C73AAFB45B35BA61ACAA1C1C7E7855C58C15BC331339661262CC762340413D68D77DA5B42298546CBE6573AF60CEB2F504B0304140006080800CC70623B449FB9BD290100001202000031
310
0000006662782F36394639363044362D344446342D343946362D394244322D3234314243333846323333332F636F72652E786D6C8D515B6EC32010BC0AE22B55850D98B871848994463E412FE002495162B07854397EA176A4F62F3F2C9A9D991D587EB84F37F0AD7D30CEF6905418026DA553C65E7A98E219ED203808EE9D
310
8B7F6810D871D23D2C3014FCE25D9A57483A1BB58D19B54EE9151C43D0110279CB971E06F9A5A7B11A53CC8C70ADE6515EC78BAE4895DB992778883E0700CB907242D17643D7E2538BD869608875438BBAE38922CAC8F1BDD90DB4691A5E2F42C153326A951B95E398B3D1FE599322163C9AE9115F7A3D46ADA0A018778810
310
84E907617BDCEE297BC5BB3DC6BC2EF47FA234AB2745C9D8D8D035EE220B50105E2F0DC1954B9FB747187D9F9D8FA0CCDB042D5FA0C015C65B42DF78BD10F3F3B363CB56C7109DCFDFBBB97E662ED92EB62D13BC2E1BCAE5777DB9966D8A1F504B0304140006080800CC70623BAD7543B64E01000033030000300000006662
310
782F36394639363044362D344446342D343946362D394244322D3234314243333846323333332F636E782E786D6CD593CD6EC32010845F0571AD6CE3D48AD20813A9873E410FBD12D82434182C7EAAE6EDBB2424CD25871E7B41D6EC30B3FA84F9E67BB2E40B4234DE8DB46F1925E094D7C6ED479AD3AE5951B2113C789FEE
310
6C943839C1488B4C05DF079FE72A69D8C96C13AAD6B8631503449F83828872B949AC57D26200B826A308D316B4064D6E46FCDA41C05550DC9E483A00797BFD207EFB092A45DE9514C1BBD22178396BD39D891265658C238DEA00936C654E5E433CB65A26D9F6EDB5EBC14EBF49A45CB856E66048291F6939A9A81BB5C89177
310
38143CA680F4AA299D66A042CEB3354A2684DC9D8D178FE0D9B8B41CAAD720F880EE7EF93C0C18769E099ECC04D5A102C8049A8A05632F4DDF376CF1DE0F6BB65C2F8627B65A33C6BB62177CEBBDAD973006829F89F22E814B54F4BC2BE347F8AA8F681390B50FA73F804400B5F542E796F19FF974E7F78DB802FE05E20750
310
4B0304140006080800CC70623B8D05915C650500003B100000340000006662782F36394639363044362D344446342D343946362D394244322D3234314243333846323333332F6F626A656374732E786D6CAD575B6FA33814FE2B887D06429276DA1565D4266D158D3A339A6846FB502932E050B66023DB74D2FDF5FB190C01
310
9276B2973C046C8ECFF53B17071F77456EBD502133CEAE6CDF9DD81665314F32965ED995DA3A17B6F5310C04E7AA47665B8C14F4CAD6DB7618A48257A5D94AE89654B91AEDDEDDFC61C998326A5B714EA4BCB265FC440BE2924AF184CA6737218AB8E976E7FA6E4338649B0A523E8D98964450A6A029F619B8588D52FE7039
310
B1BD30F0F4F730D0FF866AF6369557DB33949F31A9088B0F848DD8CCFCF9F2767A76E99CCDE733677E3EF59D9BBB9BA5E37F984D16E78BC5E5F5ED25044B25C0C96822E8D60EEFE11B91C581D77CEA34368A1F5329E68CD1B8B61F16D63A1B8E092D294B10C78C4A48EB593D192E7DED9BDEE7995E1B91FDEDD3ACEA9FE831
310
6A756F9F7D4D79F4274C90A7A04248AA51D5F8C718DAE06FB2F75AC4796EBE65D22A88A22223B995679120E2D50E41AA49C260C046A35368846B0BECD0DFF3EBEB8AD4F835768F69B9ADF25C43D30E6B646F807FAA64AD59F61715C7A54127C4AACA98BA3006A9D792DAE165E0D59B61A01FB3A9F9D838D2DAE62445C86166
310
F37564E842E7DE6A69879FEEA2DD5AE7E371E1A5E025154AC307D06A03D73EB5978C58FFA4C8E9033066E0F3BD53BEC1F39F91BE7B55103791EDE6BBB991A2046172CB4581D8B893FA674DDA17A77B3B7C413D1B511FD2743BFF8A38F03A658705E3ADF8015C3A3417FF3D7E439FF591DA0B5F18BC20C1B8981957AE6392A3
310
F43C640C01D1A0B4728E2DD4F26DB4B3C3152A252A3B4E913CEC1C72F012782FF88EFF8637AA552DBEF76408E8A8DE9E50F9E1CB3A2DA0DB1B6039A893B56063DC5B3E3FFB5F72E67AB9FEB4AEC496C4F4C1149625DD662C53E89D7BF0F6151A046260D1337DFDC94502430F83B0EE07A130A224BCAD7DAE1D9FB6CD422FF6
310
920702629C4BB9AE79C12F243C6432A6794E18E5552BA56B431AAB5D91317302B2B071E86C3A42B1A02F999E24061403B5D0EB639195DA655DD3EBEAB4FB862DDF579F014AD0E73C22F99E28DA57FB98E75C6CA2D74D53086D600F4786E0FE3144B771A8A7B900F03594DB8A633CBC49B2EDB69228BB479CF863B5E807AAAB
310
23872F6DFEB4129B949CA33823F58830E86D65621E10047D9DB34D862E8EAC3C2ABC2F7B2C40D67CDFE01F5545B92105AF983AC54D93D69E56FB8E797F88913F898A9FEC705D3F9D1B54EC8426FB500D40A03BD0119B06E1B95DDC7EB8F6975367793EBD70E66733DFB9BC982F9CE564727731999F5D4ECFCE3B8D6A4DC2A0
310
6D50FD148437D110834A64C6CDDF57FBACB5C307A2A477DFE4939736CFEF2B175371E0E10CF0DD1D5C15654E0BCA14D1E87DD02FF93782A162C0A3D95F1524A52770F972BF1EE9809D13CE7DD599467F8ECE9ADD85CE85A34CD45355448C64F9E8A031DC2D596ACC6E5DD93D9B82DE2EF5CAF81363A8E47996A0DE24564A79
310
4115AACE09C55E14540231FDA13C319787134EBF34E3A022514E5B4D9E0826E25C02D5805B15ABE1BEF51B26383D445DD9E875EE33FE4C22DA16427D65A3BCA92CA6D28DD01DF5DC53330704308475351050232CCD31583787BA75774AFB06E5070DD0C8EF484E19968C5D83BA5B90B244D31E54D55A372320FE4786B7EA58
310
44E135AA5467CB7EA333A61683CC6A8C3257034C10CF46F40EF9F5BE59BE5BD30C3C72D235E95D10345C1D45445A5F0BB47E46A5EBE5570F9380B5FA629579952296A773720405982B9DE04011506178964401AA8BDF1FBF0A8EAB6861DD6580C0E38217056766716DAEB2D6FA0917D3E4116581EADB879C4E7CFFB11EFACD
310
3D641311495D92C8676CB409A72D18610D803CE8A626049E8EC1887CB5B44CC39883690DDA8399B4B9855B481E7D71D4A9D22F96E5BB73BF5793020C02137BF837504B0304140006080000CC70623B000000000000000000000000350000006662782F36394639363044362D344446342D343946362D394244322D32343142
310
43333846323333332F76657274696365732E62696E504B0304140006080800CC70623BF270F1330600000004000000360000006662782F36394639363044362D344446342D343946362D394244322D3234314243333846323333332F747269616E676C65732E62696E636660600000504B0304140006080000CC70623B0000
310
00000000000000000000370000006662782F36394639363044362D344446342D343946362D394244322D3234314243333846323333332F617474726962757465732E62696E504B0304140006080800CC70623B08DA0BD19000000041010000360000006662782F36394639363044362D344446342D343946362D394244322D
310
3234314243333846323333332F6469726563746F72792E786D6C858F410AC3201045AF22B36F53E9A60B35CBEEBAE80D244E44489C6234F4F835464A48035D0DF398FF9F8AF63D0E6CC63039F212F8F9020C7D47C6792B21C5FE7403D62A1188E2E60C98D7234A5830286103A55745067B9D86B8A3CF9C7F90C11DE607FB14
310
4396D7B6A82D282E9A152AD114D5EF2CB866EEE831B8EEA07A7BB5A8D7D61A2BAAEB7FD5F70921FF497D00504B0304140006080800CC70623BCA768048FE000000A00100003B0000006662782F36394639363044362D344446342D343946362D394244322D3234314243333846323333332F7265736F75726365732F636F72
310
652E786D6C8D50596E833010BD0A9ADFCA60D600328E9AA639412F609909B1126CE4A5EAF16B0295DABFFECC8CDEA2797AECF8353F924FB44E193D409E5248504B332A3D0D10FC95B4901C39B3C6F85F3248B49871801506CE266BC2B243D2688FDA47549B11775038871E12F988C7004EDE7016A9083E2ADC3D5D84BC8B09
310
D33C8D74D471E6BC8D0192EDC93A815B742658898E651BCB59086ADC356A8C3FD555A1055ED7E7E254D615792D0F075295F585746FF53B694EE78A565DD736979A65AB9933AFE69F8CD2A2F038022F28ED489E135A7CE4554F9BBEA85E68DB53CAB255FEC71496F19FA6A0B42F8B3DEE6673C0F318E4497096AD7DC5F52C33
310
EEB55BFE0D504B010214000A0000080000CC70623B3DEE336E79000000790000001B00000000000000000000000000000000006175746F6465736B2D64657369676E2D7061636B6167652E786D6C504B01021400140006080800CC70623BD486FD9CA0000000F40000001300000000000000000000000000B20000005B436F
310
6E74656E745F54797065735D2E786D6C504B01021400140006080800CC70623BD9DDAED0EC0000007C010000080000000000000000000000000083010000636F72652E786D6C504B01021400140006080800CC70623B55019EA25F0000007C000000070000000000000000000000000095020000636E782E786D6C504B0102
310
1400140006080800CC70623BA24EB22D72010000D40300000C00000000000000000000000000190300006662782F636F72652E786D6C504B01021400140006080800CC70623B408A7D3B7C0000009D0000000B00000000000000000000000000B50400006662782F636E782E786D6C504B01021400140006080800CC70623B
310
449FB9BD290100001202000031000000000000000000000000005A0500006662782F36394639363044362D344446342D343946362D394244322D3234314243333846323333332F636F72652E786D6C504B01021400140006080800CC70623BAD7543B64E010000330300003000000000000000000000000000D20600006662
310
782F36394639363044362D344446342D343946362D394244322D3234314243333846323333332F636E782E786D6C504B01021400140006080800CC70623B8D05915C650500003B10000034000000000000000000000000006E0800006662782F36394639363044362D344446342D343946362D394244322D32343142433338
310
46323333332F6F626A656374732E786D6C504B01021400140006080000CC70623B0000000000000000000000003500000000000000000000000000250E00006662782F36394639363044362D344446342D343946362D394244322D3234314243333846323333332F76657274696365732E62696E504B010214001400060808
310
00CC70623BF270F13306000000040000003600000000000000000000000000780E00006662782F36394639363044362D344446342D343946362D394244322D3234314243333846323333332F747269616E676C65732E62696E504B01021400140006080000CC70623B00000000000000000000000037000000000000000000
310
00000000D20E00006662782F36394639363044362D344446342D343946362D394244322D3234314243333846323333332F617474726962757465732E62696E504B01021400140006080800CC70623B08DA0BD190000000410100003600000000000000000000000000270F00006662782F36394639363044362D344446342D
310
343946362D394244322D3234314243333846323333332F6469726563746F72792E786D6C504B01021400140006080800CC70623BCA768048FE000000A00100003B000000000000000000000000000B1000006662782F36394639363044362D344446342D343946362D394244322D3234314243333846323333332F7265736F
310
75726365732F636F72652E786D6C504B0506000000000E000E0080040000621100000000
  0
XRECORD
  5
176
102
{ACAD_REACTORS
330
173
102
}
330
173
100
AcDbXrecord
280
     1
270
     1
271
     1
  0
XRECORD
  5
177
102
{ACAD_REACTORS
330
173
102
}
330
173
100
AcDbXrecord
280
     1
270
     1
271
     1
  0
XRECORD
  5
24E2
102
{ACAD_REACTORS
330
234
102
}
330
234
100
AcDbXrecord
280
     1
102
DISPLAYNAME
  1
Metric50
102
FLAGS
 90
        0
  0
CELLSTYLEMAP
  5
24E1
102
{ACAD_REACTORS
330
162
102
}
330
162
100
AcDbCellStyleMap
 90
        3
300
CELLSTYLE
  1
TABLEFORMAT_BEGIN
 90
        5
170
     1
 91
        0
 92
    32768
 62
   257
 93
        1
300
CONTENTFORMAT
  1
CONTENTFORMAT_BEGIN
 90
        0
 91
        0
 92
      512
 93
        0
300

 40
0.0
140
1.0
 94
        5
 62
     0
340
11
144
6.0
309
CONTENTFORMAT_END
171
     1
301
MARGIN
  1
CELLMARGIN_BEGIN
 40
1.5
 40
1.5
 40
1.5
 40
1.5
 40
4.5
 40
4.5
309
CELLMARGIN_END
 94
        6
 95
        1
302
GRIDFORMAT
  1
GRIDFORMAT_BEGIN
 90
        0
 91
        1
 62
     0
 92
       -2
340
14
 93
        0
 40
1.125
309
GRIDFORMAT_END
 95
        2
302
GRIDFORMAT
  1
GRIDFORMAT_BEGIN
 90
        0
 91
        1
 62
     0
 92
       -2
340
14
 93
        0
 40
1.125
309
GRIDFORMAT_END
 95
        4
302
GRIDFORMAT
  1
GRIDFORMAT_BEGIN
 90
        0
 91
        1
 62
     0
 92
       -2
340
14
 93
        0
 40
1.125
309
GRIDFORMAT_END
 95
        8
302
GRIDFORMAT
  1
GRIDFORMAT_BEGIN
 90
        0
 91
        1
 62
     0
 92
       -2
340
14
 93
        0
 40
1.125
309
GRIDFORMAT_END
 95
       16
302
GRIDFORMAT
  1
GRIDFORMAT_BEGIN
 90
        0
 91
        1
 62
     0
 92
       -2
340
14
 93
        0
 40
1.125
309
GRIDFORMAT_END
 95
       32
302
GRIDFORMAT
  1
GRIDFORMAT_BEGIN
 90
        0
 91
        1
 62
     0
 92
       -2
340
14
 93
        0
 40
1.125
309
GRIDFORMAT_END
309
TABLEFORMAT_END
  1
CELLSTYLE_BEGIN
 90
        1
 91
        1
300
_TITLE
309
CELLSTYLE_END
300
CELLSTYLE
  1
TABLEFORMAT_BEGIN
 90
        5
170
     1
 91
        0
 92
        0
 62
   257
 93
        1
300
CONTENTFORMAT
  1
CONTENTFORMAT_BEGIN
 90
        0
 91
        0
 92
      512
 93
        0
300

 40
0.0
140
1.0
 94
        5
 62
     0
340
11
144
4.5
309
CONTENTFORMAT_END
171
     1
301
MARGIN
  1
CELLMARGIN_BEGIN
 40
1.5
 40
1.5
 40
1.5
 40
1.5
 40
4.5
 40
4.5
309
CELLMARGIN_END
 94
        6
 95
        1
302
GRIDFORMAT
  1
GRIDFORMAT_BEGIN
 90
        0
 91
        1
 62
     0
 92
       -2
340
14
 93
        0
 40
1.125
309
GRIDFORMAT_END
 95
        2
302
GRIDFORMAT
  1
GRIDFORMAT_BEGIN
 90
        0
 91
        1
 62
     0
 92
       -2
340
14
 93
        0
 40
1.125
309
GRIDFORMAT_END
 95
        4
302
GRIDFORMAT
  1
GRIDFORMAT_BEGIN
 90
        0
 91
        1
 62
     0
 92
       -2
340
14
 93
        0
 40
1.125
309
GRIDFORMAT_END
 95
        8
302
GRIDFORMAT
  1
GRIDFORMAT_BEGIN
 90
        0
 91
        1
 62
     0
 92
       -2
340
14
 93
        0
 40
1.125
309
GRIDFORMAT_END
 95
       16
302
GRIDFORMAT
  1
GRIDFORMAT_BEGIN
 90
        0
 91
        1
 62
     0
 92
       -2
340
14
 93
        0
 40
1.125
309
GRIDFORMAT_END
 95
       32
302
GRIDFORMAT
  1
GRIDFORMAT_BEGIN
 90
        0
 91
        1
 62
     0
 92
       -2
340
14
 93
        0
 40
1.125
309
GRIDFORMAT_END
309
TABLEFORMAT_END
  1
CELLSTYLE_BEGIN
 90
        2
 91
        1
300
_HEADER
309
CELLSTYLE_END
300
CELLSTYLE
  1
TABLEFORMAT_BEGIN
 90
        5
170
     1
 91
        0
 92
        0
 62
   257
 93
        1
300
CONTENTFORMAT
  1
CONTENTFORMAT_BEGIN
 90
        0
 91
        0
 92
      512
 93
        0
300

 40
0.0
140
1.0
 94
        2
 62
     0
340
11
144
4.5
309
CONTENTFORMAT_END
171
     1
301
MARGIN
  1
CELLMARGIN_BEGIN
 40
1.5
 40
1.5
 40
1.5
 40
1.5
 40
4.5
 40
4.5
309
CELLMARGIN_END
 94
        6
 95
        1
302
GRIDFORMAT
  1
GRIDFORMAT_BEGIN
 90
        0
 91
        1
 62
     0
 92
       -2
340
14
 93
        0
 40
1.125
309
GRIDFORMAT_END
 95
        2
302
GRIDFORMAT
  1
GRIDFORMAT_BEGIN
 90
        0
 91
        1
 62
     0
 92
       -2
340
14
 93
        0
 40
1.125
309
GRIDFORMAT_END
 95
        4
302
GRIDFORMAT
  1
GRIDFORMAT_BEGIN
 90
        0
 91
        1
 62
     0
 92
       -2
340
14
 93
        0
 40
1.125
309
GRIDFORMAT_END
 95
        8
302
GRIDFORMAT
  1
GRIDFORMAT_BEGIN
 90
        0
 91
        1
 62
     0
 92
       -2
340
14
 93
        0
 40
1.125
309
GRIDFORMAT_END
 95
       16
302
GRIDFORMAT
  1
GRIDFORMAT_BEGIN
 90
        0
 91
        1
 62
     0
 92
       -2
340
14
 93
        0
 40
1.125
309
GRIDFORMAT_END
 95
       32
302
GRIDFORMAT
  1
GRIDFORMAT_BEGIN
 90
        0
 91
        1
 62
     0
 92
       -2
340
14
 93
        0
 40
1.125
309
GRIDFORMAT_END
309
TABLEFORMAT_END
  1
CELLSTYLE_BEGIN
 90
        3
 91
        2
300
_DATA
309
CELLSTYLE_END
  0
ENDSEC
  0
SECTION
  2
ACDSDATA
 70
     2
 71
     8
  0
ACDSSCHEMA
 90
        0
  1
AcDb_Thumbnail_Schema
  2
AcDbDs::ID
280
    10
 91
        8
  2
Thumbnail_Data
280
    15
 91
        0
101
ACDSRECORD
 95
        0
 90
        1
  2
AcDbDs::TreatedAsObjectData
280
     1
291
     1
101
ACDSRECORD
 95
        0
 90
        2
  2
AcDbDs::Legacy
280
     1
291
     1
101
ACDSRECORD
  1
AcDbDs::ID
 90
        3
  2
AcDs:Indexable
280
     1
291
     1
101
ACDSRECORD
  1
AcDbDs::ID
 90
        4
  2
AcDbDs::HandleAttribute
280
     7
282
     1
  0
ACDSSCHEMA
 90
        1
  1
AcDbDs::TreatedAsObjectDataSchema
  2
AcDbDs::TreatedAsObjectData
280
     1
 91
        0
  0
ACDSSCHEMA
 90
        2
  1
AcDbDs::LegacySchema
  2
AcDbDs::Legacy
280
     1
 91
        0
  0
ACDSSCHEMA
 90
        3
  1
AcDbDs::IndexedPropertySchema
  2
AcDs:Indexable
280
     1
 91
        0
  0
ACDSSCHEMA
 90
        4
  1
AcDbDs::HandleAttributeSchema
  2
AcDbDs::HandleAttribute
280
     7
 91
        1
284
     1
  0
ACDSRECORD
 90
        0
  2
AcDbDs::ID
280
    10
320
22
  2
Thumbnail_Data
280
    15
 94
     1860
310
89504E470D0A1A0A0000000D4948445200000100000000870803000000CE6E778000000300504C5445212830000000C8C8C80000000000000000000000000000000000000000000000000000330000660000990000CC0000FF0033000033330033660033990033CC0033FF0066000066330066660066990066CC0066FF0099
310
000099330099660099990099CC0099FF00CC0000CC3300CC6600CC9900CCCC00CCFF00FF0000FF3300FF6600FF9900FFCC00FFFF3300003300333300663300993300CC3300FF3333003333333333663333993333CC3333FF3366003366333366663366993366CC3366FF3399003399333399663399993399CC3399FF33CC00
310
33CC3333CC6633CC9933CCCC33CCFF33FF0033FF3333FF6633FF9933FFCC33FFFF6600006600336600666600996600CC6600FF6633006633336633666633996633CC6633FF6666006666336666666666996666CC6666FF6699006699336699666699996699CC6699FF66CC0066CC3366CC6666CC9966CCCC66CCFF66FF0066
310
FF3366FF6666FF9966FFCC66FFFF9900009900339900669900999900CC9900FF9933009933339933669933999933CC9933FF9966009966339966669966999966CC9966FF9999009999339999669999999999CC9999FF99CC0099CC3399CC6699CC9999CCCC99CCFF99FF0099FF3399FF6699FF9999FFCC99FFFFCC0000CC00
310
33CC0066CC0099CC00CCCC00FFCC3300CC3333CC3366CC3399CC33CCCC33FFCC6600CC6633CC6666CC6699CC66CCCC66FFCC9900CC9933CC9966CC9999CC99CCCC99FFCCCC00CCCC33CCCC66CCCC99CCCCCCCCCCFFCCFF00CCFF33CCFF66CCFF99CCFFCCCCFFFFFF0000FF0033FF0066FF0099FF00CCFF00FFFF3300FF3333
310
FF3366FF3399FF33CCFF33FFFF6600FF6633FF6666FF6699FF66CCFF66FFFF9900FF9933FF9966FF9999FF99CCFF99FFFFCC00FFCC33FFCC66FFCC99FFCCCCFFCCFFFFFF00FFFF33FFFF66FFFF99FFFFCCFFFFFF0000000D0D0D1A1A1A2828283535354343435050505D5D5D6B6B6B787878868686939393A1A1A1AEAEAEBB
310
BBBBC9C9C9D6D6D6E4E4E4F1F1F1FFFFFF000000000000000000000000000000000000000000000000000000000000B21171F6000002224944415478DAED9C5972C3201005B90DF73F814FF5FE23C736D62E404E3CA3E9CE56652302AD61D1C8A59446A8FC9ABCAAFB6BCB97CB9FE13B3F9915789759FD3185B2FA04E82D60
310
51E358D2FBCBA680A1BD9D11A08780658577A77E226020770A58EBFDA3409E149D1C7A190143EFD7FBA2E1380F023422EF095850FABF435EFC8FD7A11623A09CB1B471B657C3A6AF469302B6BBA38FD76858405E7256C0A42EDB0286F68E1BFB6AB33E5563B61701F3C929AFA1BD619E0EDE9C8793E108507B2F75409F3847
310
022A2200010840000210605D80220B78E66B420B881D01CC010840000210808033F980E6B792E18C50F399ECCB8798CD09FE5B6B1180808B0870BF0A9C4CE15E292BACD4BB0A74AC82366F8EF66D8436F7014E86C0F99DA07301AA686F5F04C8950075CF01DB11205743206A049CBF1A743E099E16B0759E1525023607BA93
310
7DC0D9CB612E86108000DF02F42D1200000000000000007C9D98491AD25463178C81C89D565401359F0F0831F0157D0834CE01750B87B3E5452D457F6FFF1FF4ADAE944F0155CF432AA50C0BB88DA9EFFFEB08DDF6EEFF958A9D8480DA8BEE4BBB39DB6120E02F0428B800997D721811C01CB0E84FD008A8787EC0B5E70045
310
8F00E6005601F601440073405C01E374407D332F940FE84B88543E20BA94BA644A4CC789E4BA524E05D4247CBDDD75547B597DA294A16BA2C084BD3546044CE6EC147D10843CED7C4206000000000000000000000000000000E0D2FC008EECE6926B89A9400000000049454E44AE4260824E44AE42608220CE0EC05A1D3A07
310
50757F3700B85EF74FEEA175D820FFC72900000000000000004EC5F6D1E14E6A13B04992E12B15C700B2D703B6014431864D0071A6C31E008E6201C6D287878BA147AD34566BB413E9460591E48950B04080A2E8A2134C5E16CFDE1962AC06010000002022003446D018810F000000000000000000480A40E6000800E4DA2E
310
6FE5CCB0808000740580C603303A349520063C6DA07B6C4EAD63734924945C00401004411004411004419FAE2FA759848838F39DFE0000000049454E44AE426082DFA751A6F78044041460FE2900050F2607003D44A21180DA9632CCFAC3639725759C390004775283663F08DE2AE475F580ACC3DCB5C83E0780C0237C71B3
310
EF9572BB022831BB3C80F956810700BE00DC0C413220C6DB0F0000000049454E44AE426082454E44AE4260825E712715C038B12EFA03807D7B72AD67AA2C69F06D3416E8476BDDA3A1BAC4D2D6A3C1DAE3516A0F289FA7980FF8F0B7F1E12082B926C5D867CB4D43ED8CD0B7015073763301A8E7043FFC158D8259E1D90092
310
6E56F811006DC69FB90034EB0216004C6C046703481F02903E0C20050031806C74FD896EC00980EF0D84024000D80DC0EE5FB838A93833370044D9B4FC03AC81013BD092C4330000000049454E44AE426082
  0
ACDSRECORD
 90
        0
  2
AcDbDs::ID
280
    10
320
D3
  2
Thumbnail_Data
280
    15
 94
     1218
310
89504E470D0A1A0A0000000D4948445200000100000000B408030000004C80028300000300504C5445FFFFFF000000C8C8C80000000000000000000000000000000000000000000000000000330000660000990000CC0000FF0033000033330033660033990033CC0033FF0066000066330066660066990066CC0066FF0099
310
000099330099660099990099CC0099FF00CC0000CC3300CC6600CC9900CCCC00CCFF00FF0000FF3300FF6600FF9900FFCC00FFFF3300003300333300663300993300CC3300FF3333003333333333663333993333CC3333FF3366003366333366663366993366CC3366FF3399003399333399663399993399CC3399FF33CC00
310
33CC3333CC6633CC9933CCCC33CCFF33FF0033FF3333FF6633FF9933FFCC33FFFF6600006600336600666600996600CC6600FF6633006633336633666633996633CC6633FF6666006666336666666666996666CC6666FF6699006699336699666699996699CC6699FF66CC0066CC3366CC6666CC9966CCCC66CCFF66FF0066
310
FF3366FF6666FF9966FFCC66FFFF9900009900339900669900999900CC9900FF9933009933339933669933999933CC9933FF9966009966339966669966999966CC9966FF9999009999339999669999999999CC9999FF99CC0099CC3399CC6699CC9999CCCC99CCFF99FF0099FF3399FF6699FF9999FFCC99FFFFCC0000CC00
310
33CC0066CC0099CC00CCCC00FFCC3300CC3333CC3366CC3399CC33CCCC33FFCC6600CC6633CC6666CC6699CC66CCCC66FFCC9900CC9933CC9966CC9999CC99CCCC99FFCCCC00CCCC33CCCC66CCCC99CCCCCCCCCCFFCCFF00CCFF33CCFF66CCFF99CCFFCCCCFFFFFF0000FF0033FF0066FF0099FF00CCFF00FFFF3300FF3333
310
FF3366FF3399FF33CCFF33FFFF6600FF6633FF6666FF6699FF66CCFF66FFFF9900FF9933FF9966FF9999FF99CCFF99FFFFCC00FFCC33FFCC66FFCC99FFCCCCFFCCFFFFFF00FFFF33FFFF66FFFF99FFFFCCFFFFFF0000000D0D0D1A1A1A2828283535354343435050505D5D5D6B6B6B787878868686939393A1A1A1AEAEAEBB
310
BBBBC9C9C9D6D6D6E4E4E4F1F1F1FFFFFF000000000000000000000000000000000000000000000000000000000000B0E2D235000001774944415478DAEDDD3D8AC330148551ED7F53DECB2B8D1611932A60F2436417D23DAF4839C5C1F7736060A6F53DF87AEFADB7E0030000008033401DB7E867FA13F01B40A54F008009
310
84033400262082004C4004019880080278B96DB2BB7C02DB5C4FC7084003100EB0F0041A001104F077046BAABBEB2DD08227B0C213301EC1C99F80788002208200441080080210410022084004018820001104208200441080080210410022F8FD27E6FC7A5C0401780B88200013104100262082004C400401988008023001
310
110460022208C0044410800988200013104100262082004C400401988008023001110460022208C004441040C6042A06E0DD4FAC7480A904EE790BD4EC00C311F447557D11F255188009F82A0CC0044410800988200013104100262082004C4004019880080230011104B0FC04FCC7496F016F01110460022208C004522338
310
D95D0EB0C48D4C60CD0310065000441080080210410022084004017C00386EDDCFEC0634000000003801ECC1F70408BF072212E67A063B70730000000049454E44AE4260824E44AE426082
  0
ACDSRECORD
 90
        0
  2
AcDbDs::ID
280
    10
320
D7
  2
Thumbnail_Data
280
    15
 94
     1218
310
89504E470D0A1A0A0000000D4948445200000100000000B408030000004C80028300000300504C5445FFFFFF000000C8C8C80000000000000000000000000000000000000000000000000000330000660000990000CC0000FF0033000033330033660033990033CC0033FF0066000066330066660066990066CC0066FF0099
310
000099330099660099990099CC0099FF00CC0000CC3300CC6600CC9900CCCC00CCFF00FF0000FF3300FF6600FF9900FFCC00FFFF3300003300333300663300993300CC3300FF3333003333333333663333993333CC3333FF3366003366333366663366993366CC3366FF3399003399333399663399993399CC3399FF33CC00
310
33CC3333CC6633CC9933CCCC33CCFF33FF0033FF3333FF6633FF9933FFCC33FFFF6600006600336600666600996600CC6600FF6633006633336633666633996633CC6633FF6666006666336666666666996666CC6666FF6699006699336699666699996699CC6699FF66CC0066CC3366CC6666CC9966CCCC66CCFF66FF0066
310
FF3366FF6666FF9966FFCC66FFFF9900009900339900669900999900CC9900FF9933009933339933669933999933CC9933FF9966009966339966669966999966CC9966FF9999009999339999669999999999CC9999FF99CC0099CC3399CC6699CC9999CCCC99CCFF99FF0099FF3399FF6699FF9999FFCC99FFFFCC0000CC00
310
33CC0066CC0099CC00CCCC00FFCC3300CC3333CC3366CC3399CC33CCCC33FFCC6600CC6633CC6666CC6699CC66CCCC66FFCC9900CC9933CC9966CC9999CC99CCCC99FFCCCC00CCCC33CCCC66CCCC99CCCCCCCCCCFFCCFF00CCFF33CCFF66CCFF99CCFFCCCCFFFFFF0000FF0033FF0066FF0099FF00CCFF00FFFF3300FF3333
310
FF3366FF3399FF33CCFF33FFFF6600FF6633FF6666FF6699FF66CCFF66FFFF9900FF9933FF9966FF9999FF99CCFF99FFFFCC00FFCC33FFCC66FFCC99FFCCCCFFCCFFFFFF00FFFF33FFFF66FFFF99FFFFCCFFFFFF0000000D0D0D1A1A1A2828283535354343435050505D5D5D6B6B6B787878868686939393A1A1A1AEAEAEBB
310
BBBBC9C9C9D6D6D6E4E4E4F1F1F1FFFFFF000000000000000000000000000000000000000000000000000000000000B0E2D235000001774944415478DAEDDD3D8AC330148551ED7F53DECB2B8D1611932A60F2436417D23DAF4839C5C1F7736060A6F53DF87AEFADB7E0030000008033401DB7E867FA13F01B40A54F008009
310
84033400262082004C4004019880080278B96DB2BB7C02DB5C4FC7084003100EB0F0041A001104F077046BAABBEB2DD08227B0C213301EC1C99F80788002208200441080080210410022084004018820001104208200441080080210410022F8FD27E6FC7A5C0401780B88200013104100262082004C400401988008023001
310
110460022208C0044410800988200013104100262082004C400401988008023001110460022208C004441040C6042A06E0DD4FAC7480A904EE790BD4EC00C311F447557D11F255188009F82A0CC0044410800988200013104100262082004C4004019880080230011104B0FC04FCC7496F016F01110460022208C004522338
310
D95D0EB0C48D4C60CD0310065000441080080210410022084004017C00386EDDCFEC0634000000003801ECC1F70408BF072212E67A063B70730000000049454E44AE4260824E44AE426082
  0
ENDSEC
  0
EOF
