  0
SECTION
  2
HEADER
  9
$ACADVER
  1
AC1024
  9
$ACADMAINTVER
 70
     6
  9
$DWGCODEPAGE
  3
ANSI_1251
  9
$INSBASE
 10
0.0
 20
0.0
 30
0.0
  9
$EXTMIN
 10
0.0
 20
0.0
 30
0.0
  9
$EXTMAX
 10
950.9226604995788
 20
438.3556825704519
 30
0.0
  9
$LIMMIN
 10
0.0
 20
0.0
  9
$LIMMAX
 10
420.0
 20
297.0
  9
$ORTHOMODE
 70
     0
  9
$REGENMODE
 70
     1
  9
$FILLMODE
 70
     1
  9
$QTEXTMODE
 70
     0
  9
$MIRRTEXT
 70
     1
  9
$LTSCALE
 40
1.0
  9
$ATTMODE
 70
     1
  9
$TEXTSIZE
 40
2.5
  9
$TRACEWID
 40
1.0
  9
$TEXTSTYLE
  7
Standard
  9
$CLAYER
  8
0
  9
$CELTYPE
  6
ByLayer
  9
$CECOLOR
 62
   256
  9
$CELTSCALE
 40
1.0
  9
$DISPSILH
 70
     0
  9
$DIMSCALE
 40
1.0
  9
$DIMASZ
 40
2.5
  9
$DIMEXO
 40
0.625
  9
$DIMDLI
 40
3.75
  9
$DIMRND
 40
0.0
  9
$DIMDLE
 40
0.0
  9
$DIMEXE
 40
1.25
  9
$DIMTP
 40
0.0
  9
$DIMTM
 40
0.0
  9
$DIMTXT
 40
2.5
  9
$DIMCEN
 40
2.5
  9
$DIMTSZ
 40
0.0
  9
$DIMTOL
 70
     0
  9
$DIMLIM
 70
     0
  9
$DIMTIH
 70
     0
  9
$DIMTOH
 70
     0
  9
$DIMSE1
 70
     0
  9
$DIMSE2
 70
     0
  9
$DIMTAD
 70
     1
  9
$DIMZIN
 70
     8
  9
$DIMBLK
  1

  9
$DIMASO
 70
     1
  9
$DIMSHO
 70
     1
  9
$DIMPOST
  1

  9
$DIMAPOST
  1

  9
$DIMALT
 70
     0
  9
$DIMALTD
 70
     3
  9
$DIMALTF
 40
0.03937007874016
  9
$DIMLFAC
 40
1.0
  9
$DIMTOFL
 70
     1
  9
$DIMTVP
 40
0.0
  9
$DIMTIX
 70
     0
  9
$DIMSOXD
 70
     0
  9
$DIMSAH
 70
     0
  9
$DIMBLK1
  1

  9
$DIMBLK2
  1

  9
$DIMSTYLE
  2
ISO-25
  9
$DIMCLRD
 70
     0
  9
$DIMCLRE
 70
     0
  9
$DIMCLRT
 70
     0
  9
$DIMTFAC
 40
1.0
  9
$DIMGAP
 40
0.625
  9
$DIMJUST
 70
     0
  9
$DIMSD1
 70
     0
  9
$DIMSD2
 70
     0
  9
$DIMTOLJ
 70
     0
  9
$DIMTZIN
 70
     8
  9
$DIMALTZ
 70
     0
  9
$DIMALTTZ
 70
     0
  9
$DIMUPT
 70
     0
  9
$DIMDEC
 70
     2
  9
$DIMTDEC
 70
     2
  9
$DIMALTU
 70
     2
  9
$DIMALTTD
 70
     3
  9
$DIMTXSTY
  7
Standard
  9
$DIMAUNIT
 70
     0
  9
$DIMADEC
 70
     0
  9
$DIMALTRND
 40
0.0
  9
$DIMAZIN
 70
     0
  9
$DIMDSEP
 70
    44
  9
$DIMATFIT
 70
     3
  9
$DIMFRAC
 70
     0
  9
$DIMLDRBLK
  1

  9
$DIMLUNIT
 70
     6
  9
$DIMLWD
 70
    -2
  9
$DIMLWE
 70
    -2
  9
$DIMTMOVE
 70
     0
  9
$DIMFXL
 40
1.0
  9
$DIMFXLON
 70
     0
  9
$DIMJOGANG
 40
0.7853981633974483
  9
$DIMTFILL
 70
     0
  9
$DIMTFILLCLR
 70
     0
  9
$DIMARCSYM
 70
     0
  9
$DIMLTYPE
  6

  9
$DIMLTEX1
  6

  9
$DIMLTEX2
  6

  9
$DIMTXTDIRECTION
 70
     0
  9
$LUNITS
 70
     2
  9
$LUPREC
 70
     4
  9
$SKETCHINC
 40
1.0
  9
$FILLETRAD
 40
10.0
  9
$AUNITS
 70
     0
  9
$AUPREC
 70
     0
  9
$MENU
  1
.
  9
$ELEVATION
 40
0.0
  9
$PELEVATION
 40
0.0
  9
$THICKNESS
 40
0.0
  9
$LIMCHECK
 70
     0
  9
$CHAMFERA
 40
10.0
  9
$CHAMFERB
 40
10.0
  9
$CHAMFERC
 40
20.0
  9
$CHAMFERD
 40
0.0
  9
$SKPOLY
 70
     0
  9
$TDCREATE
 40
2457170.52968
  9
$TDUCREATE
 40
2457170.363013333
  9
$TDUPDATE
 40
2457170.529685915
  9
$TDUUPDATE
 40
2457170.363019248
  9
$TDINDWG
 40
0.0000000116
  9
$TDUSRTIMER
 40
0.0000000116
  9
$USRTIMER
 70
     1
  9
$ANGBASE
 50
0.0
  9
$ANGDIR
 70
     0
  9
$PDMODE
 70
     0
  9
$PDSIZE
 40
0.0
  9
$PLINEWID
 40
0.0
  9
$SPLFRAME
 70
     0
  9
$SPLINETYPE
 70
     6
  9
$SPLINESEGS
 70
     8
  9
$HANDSEED
  5
354
  9
$SURFTAB1
 70
     6
  9
$SURFTAB2
 70
     6
  9
$SURFTYPE
 70
     6
  9
$SURFU
 70
     6
  9
$SURFV
 70
     6
  9
$UCSBASE
  2

  9
$UCSNAME
  2

  9
$UCSORG
 10
0.0
 20
0.0
 30
0.0
  9
$UCSXDIR
 10
1.0
 20
0.0
 30
0.0
  9
$UCSYDIR
 10
0.0
 20
1.0
 30
0.0
  9
$UCSORTHOREF
  2

  9
$UCSORTHOVIEW
 70
     0
  9
$UCSORGTOP
 10
0.0
 20
0.0
 30
0.0
  9
$UCSORGBOTTOM
 10
0.0
 20
0.0
 30
0.0
  9
$UCSORGLEFT
 10
0.0
 20
0.0
 30
0.0
  9
$UCSORGRIGHT
 10
0.0
 20
0.0
 30
0.0
  9
$UCSORGFRONT
 10
0.0
 20
0.0
 30
0.0
  9
$UCSORGBACK
 10
0.0
 20
0.0
 30
0.0
  9
$PUCSBASE
  2

  9
$PUCSNAME
  2

  9
$PUCSORG
 10
0.0
 20
0.0
 30
0.0
  9
$PUCSXDIR
 10
1.0
 20
0.0
 30
0.0
  9
$PUCSYDIR
 10
0.0
 20
1.0
 30
0.0
  9
$PUCSORTHOREF
  2

  9
$PUCSORTHOVIEW
 70
     0
  9
$PUCSORGTOP
 10
0.0
 20
0.0
 30
0.0
  9
$PUCSORGBOTTOM
 10
0.0
 20
0.0
 30
0.0
  9
$PUCSORGLEFT
 10
0.0
 20
0.0
 30
0.0
  9
$PUCSORGRIGHT
 10
0.0
 20
0.0
 30
0.0
  9
$PUCSORGFRONT
 10
0.0
 20
0.0
 30
0.0
  9
$PUCSORGBACK
 10
0.0
 20
0.0
 30
0.0
  9
$USERI1
 70
     0
  9
$USERI2
 70
     0
  9
$USERI3
 70
     0
  9
$USERI4
 70
     0
  9
$USERI5
 70
     0
  9
$USERR1
 40
0.0
  9
$USERR2
 40
0.0
  9
$USERR3
 40
0.0
  9
$USERR4
 40
0.0
  9
$USERR5
 40
0.0
  9
$WORLDVIEW
 70
     1
  9
$SHADEDGE
 70
     3
  9
$SHADEDIF
 70
    70
  9
$TILEMODE
 70
     1
  9
$MAXACTVP
 70
    64
  9
$PINSBASE
 10
0.0
 20
0.0
 30
0.0
  9
$PLIMCHECK
 70
     0
  9
$PEXTMIN
 10
1.000000000000000E+20
 20
1.000000000000000E+20
 30
1.000000000000000E+20
  9
$PEXTMAX
 10
-1.000000000000000E+20
 20
-1.000000000000000E+20
 30
-1.000000000000000E+20
  9
$PLIMMIN
 10
0.0
 20
0.0
  9
$PLIMMAX
 10
420.0
 20
297.0
  9
$UNITMODE
 70
     0
  9
$VISRETAIN
 70
     1
  9
$PLINEGEN
 70
     0
  9
$PSLTSCALE
 70
     1
  9
$TREEDEPTH
 70
  3020
  9
$CMLSTYLE
  2
Standard
  9
$CMLJUST
 70
     0
  9
$CMLSCALE
 40
20.0
  9
$PROXYGRAPHICS
 70
     1
  9
$MEASUREMENT
 70
     1
  9
$CELWEIGHT
370
    -1
  9
$ENDCAPS
280
     0
  9
$JOINSTYLE
280
     0
  9
$LWDISPLAY
290
     0
  9
$INSUNITS
 70
     4
  9
$HYPERLINKBASE
  1

  9
$STYLESHEET
  1

  9
$XEDIT
290
     1
  9
$CEPSNTYPE
380
     0
  9
$PSTYLEMODE
290
     1
  9
$FINGERPRINTGUID
  2
{3BD5E17E-6F40-4117-B6D5-B88460D0C1B8}
  9
$VERSIONGUID
  2
{FAEB1C32-E019-11D5-929B-00C0DF256EC4}
  9
$EXTNAMES
290
     1
  9
$PSVPSCALE
 40
0.0
  9
$OLESTARTUP
290
     0
  9
$SORTENTS
280
   127
  9
$INDEXCTL
280
     0
  9
$HIDETEXT
280
     1
  9
$XCLIPFRAME
280
     2
  9
$HALOGAP
280
     0
  9
$OBSCOLOR
 70
   257
  9
$OBSLTYPE
280
     0
  9
$INTERSECTIONDISPLAY
280
     0
  9
$INTERSECTIONCOLOR
 70
   257
  9
$DIMASSOC
280
     2
  9
$PROJECTNAME
  1

  9
$CAMERADISPLAY
290
     0
  9
$LENSLENGTH
 40
50.0
  9
$CAMERAHEIGHT
 40
0.0
  9
$STEPSPERSEC
 40
2.0
  9
$STEPSIZE
 40
6.0
  9
$3DDWFPREC
 40
2.0
  9
$PSOLWIDTH
 40
5.0
  9
$PSOLHEIGHT
 40
80.0
  9
$LOFTANG1
 40
1.570796326794897
  9
$LOFTANG2
 40
1.570796326794897
  9
$LOFTMAG1
 40
0.0
  9
$LOFTMAG2
 40
0.0
  9
$LOFTPARAM
 70
     7
  9
$LOFTNORMALS
280
     1
  9
$LATITUDE
 40
37.795
  9
$LONGITUDE
 40
-122.394
  9
$NORTHDIRECTION
 40
0.0
  9
$TIMEZONE
 70
 -8000
  9
$LIGHTGLYPHDISPLAY
280
     1
  9
$TILEMODELIGHTSYNCH
280
     1
  9
$CMATERIAL
347
3C
  9
$SOLIDHIST
280
     1
  9
$SHOWHIST
280
     1
  9
$DWFFRAME
280
     2
  9
$DGNFRAME
280
     2
  9
$REALWORLDSCALE
290
     1
  9
$INTERFERECOLOR
 62
   256
  9
$CSHADOW
280
     0
  9
$SHADOWPLANELOCATION
 40
0.0
  0
ENDSEC
  0
SECTION
  2
CLASSES
  0
CLASS
  1
ACDBDICTIONARYWDFLT
  2
AcDbDictionaryWithDefault
  3
ObjectDBX Classes
 90
        0
 91
        4
280
     0
281
     0
  0
CLASS
  1
VISUALSTYLE
  2
AcDbVisualStyle
  3
ObjectDBX Classes
 90
     4095
 91
        4
280
     0
281
     0
  0
CLASS
  1
MATERIAL
  2
AcDbMaterial
  3
ObjectDBX Classes
 90
     1153
 91
        4
280
     0
281
     0
  0
CLASS
  1
SUN
  2
AcDbSun
  3
SCENEOE
 90
     1024
 91
        4
280
     0
281
     0
  0
CLASS
  1
WIPEOUTVARIABLES
  2
AcDbWipeoutVariables
  3
WipeOut|AutoCAD Express Tool|expresstools@autodesk.com
 90
        0
 91
        4
280
     0
281
     0
  0
CLASS
  1
WIPEOUT
  2
AcDbWipeout
  3
WipeOut|AutoCAD Express Tool|expresstools@autodesk.com
 90
      127
 91
        4
280
     0
281
     1
  0
CLASS
  1
SCALE
  2
AcDbScale
  3
ObjectDBX Classes
 90
     1153
 91
        4
280
     0
281
     0
  0
CLASS
  1
DICTIONARYVAR
  2
AcDbDictionaryVar
  3
ObjectDBX Classes
 90
        0
 91
        4
280
     0
281
     0
  0
ENDSEC
  0
SECTION
  2
TABLES
  0
TABLE
  2
VPORT
  5
8
330
0
100
AcDbSymbolTable
 70
     1
  0
VPORT
  5
29
330
8
100
AcDbSymbolTableRecord
100
AcDbViewportTableRecord
  2
*Active
 70
     0
 10
0.0
 20
0.0
 11
1.0
 21
1.0
 12
475.0366433317452
 22
219.177841285226
 13
0.0
 23
0.0
 14
10.0
 24
10.0
 15
10.0
 25
10.0
 16
0.0
 26
0.0
 36
1.0
 17
0.0
 27
0.0
 37
0.0
 40
447.1227962218609
 41
2.167357067421604
 42
50.0
 43
0.0
 44
0.0
 50
0.0
 51
0.0
 71
     0
 72
   100
 73
     1
 74
     3
 75
     0
 76
     0
 77
     0
 78
     0
281
     0
 65
     1
110
0.0
120
0.0
130
0.0
111
1.0
121
0.0
131
0.0
112
0.0
122
1.0
132
0.0
 79
     0
146
0.0
 60
     3
 61
     5
292
     1
282
     1
141
0.0
142
0.0
 63
   250
361
3F
  0
ENDTAB
  0
TABLE
  2
LTYPE
  5
5
330
0
100
AcDbSymbolTable
 70
     5
  0
LTYPE
  5
14
330
5
100
AcDbSymbolTableRecord
100
AcDbLinetypeTableRecord
  2
ByBlock
 70
     0
  3

 72
    65
 73
     0
 40
0.0
  0
LTYPE
  5
15
330
5
100
AcDbSymbolTableRecord
100
AcDbLinetypeTableRecord
  2
ByLayer
 70
     0
  3

 72
    65
 73
     0
 40
0.0
  0
LTYPE
  5
16
330
5
100
AcDbSymbolTableRecord
100
AcDbLinetypeTableRecord
  2
Continuous
 70
     0
  3
Solid line
 72
    65
 73
     0
 40
0.0
  0
LTYPE
  5
43
330
5
100
AcDbSymbolTableRecord
100
AcDbLinetypeTableRecord
  2
K5LT_THIN
 70
     0
  3

 72
    65
 73
     0
 40
0.0
  0
LTYPE
  5
A5
330
5
100
AcDbSymbolTableRecord
100
AcDbLinetypeTableRecord
  2
K5LT_BASIC
 70
     0
  3

 72
    65
 73
     0
 40
0.0
  0
LTYPE
  5
C9
330
5
100
AcDbSymbolTableRecord
100
AcDbLinetypeTableRecord
  2
K5LT_REINFORCED
 70
     0
  3

 72
    65
 73
     0
 40
0.0
  0
LTYPE
  5
168
330
5
100
AcDbSymbolTableRecord
100
AcDbLinetypeTableRecord
  2
K5LT_AXLED
 70
     0
  3

 72
    65
 73
     4
 40
30.9570140838623
 49
26.4570140838623
 74
     0
 49
-1.5
 74
     0
 49
1.5
 74
     0
 49
-1.5
 74
     0
  0
ENDTAB
  0
TABLE
  2
LAYER
  5
2
330
0
100
AcDbSymbolTable
 70
     2
  0
LAYER
  5
10
330
2
100
AcDbSymbolTableRecord
100
AcDbLayerTableRecord
  2
0
 70
     0
 62
     7
  6
Continuous
370
    -3
390
F
347
3E
  0
LAYER
  5
41
330
2
100
AcDbSymbolTableRecord
100
AcDbLayerTableRecord
  2
Системный слой
 70
     0
 62
     7
  6
Continuous
370
    -3
390
F
347
3E
  0
ENDTAB
  0
TABLE
  2
STYLE
  5
3
330
0
100
AcDbSymbolTable
 70
     3
  0
STYLE
  5
11
330
3
100
AcDbSymbolTableRecord
100
AcDbTextStyleTableRecord
  2
Standard
 70
     0
 40
0.0
 41
1.0
 50
0.0
 71
     0
 42
2.5
  3
txt
  4

  0
STYLE
  5
C6
330
3
100
AcDbSymbolTableRecord
100
AcDbTextStyleTableRecord
  2
KTEXTSTYLE
 70
     0
 40
5.0
 41
0.96
 50
0.0
 71
     0
 42
0.2
  3
GOST_AU.SHX
  4

  0
STYLE
  5
16B
330
3
100
AcDbSymbolTableRecord
100
AcDbTextStyleTableRecord
  2
KDIMTEXTSTYLE
 70
     0
 40
5.0
 41
0.96
 50
15.0
 71
     0
 42
0.2
  3
GOST_AU.SHX
  4

  0
ENDTAB
  0
TABLE
  2
VIEW
  5
6
330
0
100
AcDbSymbolTable
 70
     0
  0
ENDTAB
  0
TABLE
  2
UCS
  5
7
330
0
100
AcDbSymbolTable
 70
     0
  0
ENDTAB
  0
TABLE
  2
APPID
  5
9
330
0
100
AcDbSymbolTable
 70
     2
  0
APPID
  5
12
330
9
100
AcDbSymbolTableRecord
100
AcDbRegAppTableRecord
  2
ACAD
 70
     0
  0
APPID
  5
40
330
9
100
AcDbSymbolTableRecord
100
AcDbRegAppTableRecord
  2
KOMPAS
 70
     0
  0
ENDTAB
  0
TABLE
  2
DIMSTYLE
  5
A
330
0
100
AcDbSymbolTable
 70
     2
100
AcDbDimStyleTable
  0
DIMSTYLE
105
27
330
A
100
AcDbSymbolTableRecord
100
AcDbDimStyleTableRecord
  2
ISO-25
 70
     0
 41
2.5
 42
0.625
 43
3.75
 44
1.25
 73
     0
 74
     0
 77
     1
 78
     8
140
2.5
141
2.5
143
0.03937007874016
147
0.625
171
     3
172
     1
178
     0
271
     2
272
     2
274
     3
278
    44
283
     0
284
     8
340
11
  0
DIMSTYLE
105
16C
102
{ACAD_REACTORS
330
181
330
196
330
1AB
330
1BE
330
1D3
330
1E8
330
1FB
330
20E
330
223
330
236
330
249
330
25C
330
271
330
287
330
296
330
2AB
330
2C0
330
2D6
102
}
330
A
100
AcDbSymbolTableRecord
100
AcDbDimStyleTableRecord
  2
KDIMSTYLE (1.00)
 70
     0
 41
1.0
 42
0.0
 43
2.0
 44
2.0
 46
1.0
 73
     0
 74
     0
 77
     1
 78
     8
140
5.0
141
0.0
143
0.0394
145
1.0
146
0.667
147
1.0
172
     1
173
     1
178
     0
271
     2
272
     2
273
     8
274
     4
278
    44
340
16B
  0
ENDTAB
  0
TABLE
  2
BLOCK_RECORD
  5
1
330
0
100
AcDbSymbolTable
 70
    38
  0
BLOCK_RECORD
  5
1F
330
1
100
AcDbSymbolTableRecord
100
AcDbBlockTableRecord
  2
*Model_Space
340
22
 70
     0
280
     1
281
     0
  0
BLOCK_RECORD
  5
1B
330
1
100
AcDbSymbolTableRecord
100
AcDbBlockTableRecord
  2
*Paper_Space
340
1E
 70
     0
280
     1
281
     0
  0
BLOCK_RECORD
  5
23
330
1
100
AcDbSymbolTableRecord
100
AcDbBlockTableRecord
  2
*Paper_Space0
340
26
 70
     0
280
     1
281
     0
  0
BLOCK_RECORD
  5
42
330
1
100
AcDbSymbolTableRecord
100
AcDbBlockTableRecord
  2
KDIMARROW_00
340
0
 70
     0
280
     1
281
     0
  0
BLOCK_RECORD
  5
47
330
1
100
AcDbSymbolTableRecord
100
AcDbBlockTableRecord
  2
KDIMARROW_01
340
0
 70
     0
280
     1
281
     0
  0
BLOCK_RECORD
  5
50
330
1
100
AcDbSymbolTableRecord
100
AcDbBlockTableRecord
  2
KDIMARROW_02
340
0
 70
     0
280
     1
281
     0
  0
BLOCK_RECORD
  5
5A
330
1
100
AcDbSymbolTableRecord
100
AcDbBlockTableRecord
  2
KDIMARROW_03
340
0
 70
     0
280
     1
281
     0
  0
BLOCK_RECORD
  5
60
330
1
100
AcDbSymbolTableRecord
100
AcDbBlockTableRecord
  2
KDIMARROW_04
340
0
 70
     0
280
     1
281
     0
  0
BLOCK_RECORD
  5
66
330
1
100
AcDbSymbolTableRecord
100
AcDbBlockTableRecord
  2
KDIMARROW_05
340
0
 70
     0
280
     1
281
     0
  0
BLOCK_RECORD
  5
6F
330
1
100
AcDbSymbolTableRecord
100
AcDbBlockTableRecord
  2
KDIMARROW_06
340
0
 70
     0
280
     1
281
     0
  0
BLOCK_RECORD
  5
79
330
1
100
AcDbSymbolTableRecord
100
AcDbBlockTableRecord
  2
KDIMARROW_07
340
0
 70
     0
280
     1
281
     0
  0
BLOCK_RECORD
  5
7F
330
1
100
AcDbSymbolTableRecord
100
AcDbBlockTableRecord
  2
KDIMARROW_08
340
0
 70
     0
280
     1
281
     0
  0
BLOCK_RECORD
  5
86
330
1
100
AcDbSymbolTableRecord
100
AcDbBlockTableRecord
  2
KDIMARROW_09
340
0
 70
     0
280
     1
281
     0
  0
BLOCK_RECORD
  5
8C
330
1
100
AcDbSymbolTableRecord
100
AcDbBlockTableRecord
  2
KDIMARROW_10
340
0
 70
     0
280
     1
281
     0
  0
BLOCK_RECORD
  5
93
330
1
100
AcDbSymbolTableRecord
100
AcDbBlockTableRecord
  2
KDIMARROW_11
340
0
 70
     0
280
     1
281
     0
  0
BLOCK_RECORD
  5
99
330
1
100
AcDbSymbolTableRecord
100
AcDbBlockTableRecord
  2
KDIMARROW_12
340
0
 70
     0
280
     1
281
     0
  0
BLOCK_RECORD
  5
9F
330
1
100
AcDbSymbolTableRecord
100
AcDbBlockTableRecord
  2
KDIMARROW_13
340
0
 70
     0
280
     1
281
     0
  0
BLOCK_RECORD
  5
C4
330
1
100
AcDbSymbolTableRecord
100
AcDbBlockTableRecord
  2
U0
340
0
102
{BLKREFS
331
C5
102
}
 70
     0
280
     1
281
     0
  0
BLOCK_RECORD
  5
F3
330
1
100
AcDbSymbolTableRecord
100
AcDbBlockTableRecord
  2
U1
340
0
102
{BLKREFS
331
F4
102
}
 70
     0
280
     1
281
     0
  0
BLOCK_RECORD
  5
F9
330
1
100
AcDbSymbolTableRecord
100
AcDbBlockTableRecord
  2
U2
340
0
102
{BLKREFS
331
FA
102
}
 70
     0
280
     1
281
     0
  0
BLOCK_RECORD
  5
13A
330
1
100
AcDbSymbolTableRecord
100
AcDbBlockTableRecord
  2
U3
340
0
102
{BLKREFS
331
13B
102
}
 70
     0
280
     1
281
     0
  0
BLOCK_RECORD
  5
16D
330
1
100
AcDbSymbolTableRecord
100
AcDbBlockTableRecord
  2
D0
340
0
 70
     0
280
     1
281
     0
  0
BLOCK_RECORD
  5
182
330
1
100
AcDbSymbolTableRecord
100
AcDbBlockTableRecord
  2
D1
340
0
 70
     0
280
     1
281
     0
  0
BLOCK_RECORD
  5
197
330
1
100
AcDbSymbolTableRecord
100
AcDbBlockTableRecord
  2
D2
340
0
 70
     0
280
     1
281
     0
  0
BLOCK_RECORD
  5
1AC
330
1
100
AcDbSymbolTableRecord
100
AcDbBlockTableRecord
  2
D3
340
0
 70
     0
280
     1
281
     0
  0
BLOCK_RECORD
  5
1BF
330
1
100
AcDbSymbolTableRecord
100
AcDbBlockTableRecord
  2
D4
340
0
 70
     0
280
     1
281
     0
  0
BLOCK_RECORD
  5
1D4
330
1
100
AcDbSymbolTableRecord
100
AcDbBlockTableRecord
  2
D5
340
0
 70
     0
280
     1
281
     0
  0
BLOCK_RECORD
  5
1E9
330
1
100
AcDbSymbolTableRecord
100
AcDbBlockTableRecord
  2
D6
340
0
 70
     0
280
     1
281
     0
  0
BLOCK_RECORD
  5
1FC
330
1
100
AcDbSymbolTableRecord
100
AcDbBlockTableRecord
  2
D7
340
0
 70
     0
280
     1
281
     0
  0
BLOCK_RECORD
  5
20F
330
1
100
AcDbSymbolTableRecord
100
AcDbBlockTableRecord
  2
D8
340
0
 70
     0
280
     1
281
     0
  0
BLOCK_RECORD
  5
224
330
1
100
AcDbSymbolTableRecord
100
AcDbBlockTableRecord
  2
D9
340
0
 70
     0
280
     1
281
     0
  0
BLOCK_RECORD
  5
237
330
1
100
AcDbSymbolTableRecord
100
AcDbBlockTableRecord
  2
D10
340
0
 70
     0
280
     1
281
     0
  0
BLOCK_RECORD
  5
24A
330
1
100
AcDbSymbolTableRecord
100
AcDbBlockTableRecord
  2
D11
340
0
 70
     0
280
     1
281
     0
  0
BLOCK_RECORD
  5
25D
330
1
100
AcDbSymbolTableRecord
100
AcDbBlockTableRecord
  2
D12
340
0
 70
     0
280
     1
281
     0
  0
BLOCK_RECORD
  5
272
330
1
100
AcDbSymbolTableRecord
100
AcDbBlockTableRecord
  2
D13
340
0
 70
     0
280
     1
281
     0
  0
BLOCK_RECORD
  5
288
330
1
100
AcDbSymbolTableRecord
100
AcDbBlockTableRecord
  2
D14
340
0
 70
     0
280
     1
281
     0
  0
BLOCK_RECORD
  5
297
330
1
100
AcDbSymbolTableRecord
100
AcDbBlockTableRecord
  2
D15
340
0
 70
     0
280
     1
281
     0
  0
BLOCK_RECORD
  5
2AC
330
1
100
AcDbSymbolTableRecord
100
AcDbBlockTableRecord
  2
D16
340
0
 70
     0
280
     1
281
     0
  0
BLOCK_RECORD
  5
2C1
330
1
100
AcDbSymbolTableRecord
100
AcDbBlockTableRecord
  2
D17
340
0
 70
     0
280
     1
281
     0
  0
BLOCK_RECORD
  5
2D7
330
1
100
AcDbSymbolTableRecord
100
AcDbBlockTableRecord
  2
U4
340
0
102
{BLKREFS
331
2D8
102
}
 70
     0
280
     1
281
     0
  0
ENDTAB
  0
ENDSEC
  0
SECTION
  2
BLOCKS
  0
BLOCK
  5
20
330
1F
100
AcDbEntity
  8
0
100
AcDbBlockBegin
  2
*Model_Space
 70
     0
 10
0.0
 20
0.0
 30
0.0
  3
*Model_Space
  1

  0
ENDBLK
  5
21
330
1F
100
AcDbEntity
  8
0
100
AcDbBlockEnd
  0
BLOCK
  5
1C
330
1B
100
AcDbEntity
 67
     1
  8
0
100
AcDbBlockBegin
  2
*Paper_Space
 70
     0
 10
0.0
 20
0.0
 30
0.0
  3
*Paper_Space
  1

  0
ENDBLK
  5
1D
330
1B
100
AcDbEntity
 67
     1
  8
0
100
AcDbBlockEnd
  0
BLOCK
  5
24
330
23
100
AcDbEntity
  8
0
100
AcDbBlockBegin
  2
*Paper_Space0
 70
     0
 10
0.0
 20
0.0
 30
0.0
  3
*Paper_Space0
  1

  0
ENDBLK
  5
25
330
23
100
AcDbEntity
  8
0
100
AcDbBlockEnd
  0
BLOCK
  5
45
330
42
100
AcDbEntity
  8
0
100
AcDbBlockBegin
  2
KDIMARROW_00
 70
     0
 10
0.0
 20
0.0
 30
0.0
  3
KDIMARROW_00
  1

  0
LINE
  5
44
330
42
100
AcDbEntity
  8
Системный слой
  6
K5LT_THIN
 62
     0
370
    18
100
AcDbLine
 10
786.3928429782889
 20
271.2808230281013
 30
0.0
 11
785.3928429782889
 21
271.2808230281013
 31
0.0
  0
ENDBLK
  5
46
330
42
100
AcDbEntity
  8
0
100
AcDbBlockEnd
  0
BLOCK
  5
4E
330
47
100
AcDbEntity
  8
0
100
AcDbBlockBegin
  2
KDIMARROW_01
 70
     0
 10
0.0
 20
0.0
 30
0.0
  3
KDIMARROW_01
  1

  0
LINE
  5
48
330
47
100
AcDbEntity
  8
Системный слой
  6
K5LT_THIN
 62
     0
370
    18
100
AcDbLine
 10
0.0
 20
0.0
 30
0.0
 11
-5.0
 21
-0.6582624912261956
 31
0.0
  0
LINE
  5
49
330
47
100
AcDbEntity
  8
Системный слой
  6
K5LT_THIN
 62
     0
370
    18
100
AcDbLine
 10
-5.0
 20
-0.6582624912261956
 30
0.0
 11
-4.5
 21
0.0000000000000006
 31
0.0
  0
LINE
  5
4A
330
47
100
AcDbEntity
  8
Системный слой
  6
K5LT_THIN
 62
     0
370
    18
100
AcDbLine
 10
-4.5
 20
0.0000000000000006
 30
0.0
 11
-5.0
 21
0.658262491226197
 31
0.0
  0
LINE
  5
4B
330
47
100
AcDbEntity
  8
Системный слой
  6
K5LT_THIN
 62
     0
370
    18
100
AcDbLine
 10
-5.0
 20
0.658262491226197
 30
0.0
 11
0.0
 21
0.0
 31
0.0
  0
HATCH
  5
4C
330
47
100
AcDbEntity
  8
Системный слой
 62
     0
100
AcDbHatch
 10
0.0
 20
0.0
 30
0.0
210
0.0
220
0.0
230
1.0
  2
SOLID
 70
     1
 71
     0
 91
        1
 92
        1
 93
        4
 72
     1
 10
0.0
 20
0.0
 11
-5.0
 21
0.658262491226197
 72
     1
 10
-5.0
 20
0.658262491226197
 11
-4.5
 21
0.0000000000000006
 72
     1
 10
-4.5
 20
0.0000000000000006
 11
-5.0
 21
-0.6582624912261956
 72
     1
 10
-5.0
 20
-0.6582624912261956
 11
0.0
 21
0.0
 97
        0
 75
     0
 76
     1
 98
        0
  0
LINE
  5
4D
330
47
100
AcDbEntity
  8
Системный слой
  6
K5LT_THIN
 62
     0
370
    18
100
AcDbLine
 10
786.3928429782889
 20
271.2808230281013
 30
0.0
 11
785.3928429782889
 21
271.2808230281013
 31
0.0
  0
ENDBLK
  5
4F
330
47
100
AcDbEntity
  8
0
100
AcDbBlockEnd
  0
BLOCK
  5
58
330
50
100
AcDbEntity
  8
0
100
AcDbBlockBegin
  2
KDIMARROW_02
 70
     0
 10
0.0
 20
0.0
 30
0.0
  3
KDIMARROW_02
  1

  0
LINE
  5
51
330
50
100
AcDbEntity
  8
Системный слой
  6
K5LT_THIN
 62
     0
370
    18
100
AcDbLine
 10
0.0
 20
0.0
 30
0.0
 11
5.0
 21
-0.658262491226197
 31
0.0
  0
LINE
  5
52
330
50
100
AcDbEntity
  8
Системный слой
  6
K5LT_THIN
 62
     0
370
    18
100
AcDbLine
 10
5.0
 20
-0.658262491226197
 30
0.0
 11
4.5
 21
-0.0000000000000006
 31
0.0
  0
LINE
  5
53
330
50
100
AcDbEntity
  8
Системный слой
  6
K5LT_THIN
 62
     0
370
    18
100
AcDbLine
 10
4.5
 20
-0.0000000000000006
 30
0.0
 11
5.0
 21
0.6582624912261956
 31
0.0
  0
LINE
  5
54
330
50
100
AcDbEntity
  8
Системный слой
  6
K5LT_THIN
 62
     0
370
    18
100
AcDbLine
 10
5.0
 20
0.6582624912261956
 30
0.0
 11
0.0
 21
0.0
 31
0.0
  0
LINE
  5
55
330
50
100
AcDbEntity
  8
Системный слой
  6
K5LT_THIN
 62
     0
370
    18
100
AcDbLine
 10
0.0
 20
0.0
 30
0.0
 11
7.0
 21
-0.0000000000000009
 31
0.0
  0
HATCH
  5
56
330
50
100
AcDbEntity
  8
Системный слой
 62
     0
100
AcDbHatch
 10
0.0
 20
0.0
 30
0.0
210
0.0
220
0.0
230
1.0
  2
SOLID
 70
     1
 71
     0
 91
        1
 92
        1
 93
        4
 72
     1
 10
4.5
 20
-0.0000000000000006
 11
5.0
 21
0.6582624912261956
 72
     1
 10
5.0
 20
0.6582624912261956
 11
0.0
 21
0.0
 72
     1
 10
0.0
 20
0.0
 11
5.0
 21
-0.658262491226197
 72
     1
 10
5.0
 20
-0.658262491226197
 11
4.5
 21
-0.0000000000000006
 97
        0
 75
     0
 76
     1
 98
        0
  0
LINE
  5
57
330
50
100
AcDbEntity
  8
Системный слой
  6
K5LT_THIN
 62
     0
370
    18
100
AcDbLine
 10
786.3928429782889
 20
271.2808230281013
 30
0.0
 11
785.3928429782889
 21
271.2808230281013
 31
0.0
  0
ENDBLK
  5
59
330
50
100
AcDbEntity
  8
0
100
AcDbBlockEnd
  0
BLOCK
  5
5E
330
5A
100
AcDbEntity
  8
0
100
AcDbBlockBegin
  2
KDIMARROW_03
 70
     0
 10
0.0
 20
0.0
 30
0.0
  3
KDIMARROW_03
  1

  0
LINE
  5
5B
330
5A
100
AcDbEntity
  8
Системный слой
  6
K5LT_THIN
 62
     0
370
    18
100
AcDbLine
 10
-1.060500025749207
 20
-1.060500025749206
 30
0.0
 11
1.060500025749207
 21
1.060500025749206
 31
0.0
  0
LINE
  5
5C
330
5A
100
AcDbEntity
  8
Системный слой
  6
K5LT_THIN
 62
     0
370
    18
100
AcDbLine
 10
0.0
 20
0.0
 30
0.0
 11
2.0
 21
-0.0000000000000002
 31
0.0
  0
LINE
  5
5D
330
5A
100
AcDbEntity
  8
Системный слой
  6
K5LT_THIN
 62
     0
370
    18
100
AcDbLine
 10
786.3928429782889
 20
271.2808230281013
 30
0.0
 11
785.3928429782889
 21
271.2808230281013
 31
0.0
  0
ENDBLK
  5
5F
330
5A
100
AcDbEntity
  8
0
100
AcDbBlockEnd
  0
BLOCK
  5
64
330
60
100
AcDbEntity
  8
0
100
AcDbBlockBegin
  2
KDIMARROW_04
 70
     0
 10
0.0
 20
0.0
 30
0.0
  3
KDIMARROW_04
  1

  0
LWPOLYLINE
  5
61
330
60
100
AcDbEntity
  8
Системный слой
  6
K5LT_THIN
 62
     7
100
AcDbPolyline
 90
       15
 70
     0
 43
0.18
 10
-0.25
 20
0.0
 10
0.0
 20
-0.25
 10
0.25
 20
0.0
 10
0.0
 20
0.25
 10
-0.25
 20
0.0
 10
-0.5
 20
0.0000000000000001
 10
-0.0000000000000001
 20
-0.5
 10
0.5
 20
-0.0000000000000001
 10
0.0000000000000001
 20
0.5
 10
-0.5
 20
0.0000000000000001
 10
-0.75
 20
0.0000000000000001
 10
-0.0000000000000001
 20
-0.75
 10
0.75
 20
-0.0000000000000001
 10
0.0000000000000001
 20
0.75
 10
-0.75
 20
0.0000000000000001
  0
LWPOLYLINE
  5
62
330
60
100
AcDbEntity
  8
Системный слой
  6
K5LT_THIN
 62
     7
100
AcDbPolyline
 90
       15
 70
     0
 43
0.18
 10
-0.25
 20
0.0
 10
0.0
 20
-0.25
 10
0.25
 20
0.0
 10
0.0
 20
0.25
 10
-0.25
 20
0.0
 10
-0.5
 20
0.0000000000000001
 10
-0.0000000000000001
 20
-0.5
 10
0.5
 20
-0.0000000000000001
 10
0.0000000000000001
 20
0.5
 10
-0.5
 20
0.0000000000000001
 10
-0.75
 20
0.0000000000000001
 10
-0.0000000000000001
 20
-0.75
 10
0.75
 20
-0.0000000000000001
 10
0.0000000000000001
 20
0.75
 10
-0.75
 20
0.0000000000000001
  0
LINE
  5
63
330
60
100
AcDbEntity
  8
Системный слой
  6
K5LT_THIN
 62
     0
370
    18
100
AcDbLine
 10
786.3928429782889
 20
271.2808230281013
 30
0.0
 11
785.3928429782889
 21
271.2808230281013
 31
0.0
  0
ENDBLK
  5
65
330
60
100
AcDbEntity
  8
0
100
AcDbBlockEnd
  0
BLOCK
  5
6D
330
66
100
AcDbEntity
  8
0
100
AcDbBlockBegin
  2
KDIMARROW_05
 70
     0
 10
0.0
 20
0.0
 30
0.0
  3
KDIMARROW_05
  1

  0
LINE
  5
67
330
66
100
AcDbEntity
  8
Системный слой
  6
K5LT_THIN
 62
     0
370
    18
100
AcDbLine
 10
0.0
 20
0.0
 30
0.0
 11
-5.0
 21
-0.6582624912261956
 31
0.0
  0
LINE
  5
68
330
66
100
AcDbEntity
  8
Системный слой
  6
K5LT_THIN
 62
     0
370
    18
100
AcDbLine
 10
-5.0
 20
-0.6582624912261956
 30
0.0
 11
-5.0
 21
0.0000000000000006
 31
0.0
  0
LINE
  5
69
330
66
100
AcDbEntity
  8
Системный слой
  6
K5LT_THIN
 62
     0
370
    18
100
AcDbLine
 10
-5.0
 20
0.0000000000000006
 30
0.0
 11
-5.0
 21
0.658262491226197
 31
0.0
  0
LINE
  5
6A
330
66
100
AcDbEntity
  8
Системный слой
  6
K5LT_THIN
 62
     0
370
    18
100
AcDbLine
 10
-5.0
 20
0.658262491226197
 30
0.0
 11
0.0
 21
0.0
 31
0.0
  0
HATCH
  5
6B
330
66
100
AcDbEntity
  8
Системный слой
 62
     0
100
AcDbHatch
 10
0.0
 20
0.0
 30
0.0
210
0.0
220
0.0
230
1.0
  2
SOLID
 70
     1
 71
     0
 91
        1
 92
        1
 93
        4
 72
     1
 10
0.0
 20
0.0
 11
-5.0
 21
0.658262491226197
 72
     1
 10
-5.0
 20
0.658262491226197
 11
-5.0
 21
0.0000000000000007
 72
     1
 10
-5.0
 20
0.0000000000000006
 11
-5.0
 21
-0.6582624912261956
 72
     1
 10
-5.0
 20
-0.6582624912261956
 11
0.0
 21
0.0
 97
        0
 75
     0
 76
     1
 98
        0
  0
LINE
  5
6C
330
66
100
AcDbEntity
  8
Системный слой
  6
K5LT_THIN
 62
     0
370
    18
100
AcDbLine
 10
786.3928429782889
 20
271.2808230281013
 30
0.0
 11
785.3928429782889
 21
271.2808230281013
 31
0.0
  0
ENDBLK
  5
6E
330
66
100
AcDbEntity
  8
0
100
AcDbBlockEnd
  0
BLOCK
  5
77
330
6F
100
AcDbEntity
  8
0
100
AcDbBlockBegin
  2
KDIMARROW_06
 70
     0
 10
0.0
 20
0.0
 30
0.0
  3
KDIMARROW_06
  1

  0
LINE
  5
70
330
6F
100
AcDbEntity
  8
Системный слой
  6
K5LT_THIN
 62
     0
370
    18
100
AcDbLine
 10
0.0
 20
0.0
 30
0.0
 11
5.0
 21
-0.658262491226197
 31
0.0
  0
LINE
  5
71
330
6F
100
AcDbEntity
  8
Системный слой
  6
K5LT_THIN
 62
     0
370
    18
100
AcDbLine
 10
5.0
 20
-0.658262491226197
 30
0.0
 11
5.0
 21
-0.0000000000000006
 31
0.0
  0
LINE
  5
72
330
6F
100
AcDbEntity
  8
Системный слой
  6
K5LT_THIN
 62
     0
370
    18
100
AcDbLine
 10
5.0
 20
-0.0000000000000006
 30
0.0
 11
5.0
 21
0.6582624912261956
 31
0.0
  0
LINE
  5
73
330
6F
100
AcDbEntity
  8
Системный слой
  6
K5LT_THIN
 62
     0
370
    18
100
AcDbLine
 10
5.0
 20
0.6582624912261956
 30
0.0
 11
0.0
 21
0.0
 31
0.0
  0
LINE
  5
74
330
6F
100
AcDbEntity
  8
Системный слой
  6
K5LT_THIN
 62
     0
370
    18
100
AcDbLine
 10
0.0
 20
0.0
 30
0.0
 11
7.0
 21
-0.0000000000000009
 31
0.0
  0
HATCH
  5
75
330
6F
100
AcDbEntity
  8
Системный слой
 62
     0
100
AcDbHatch
 10
0.0
 20
0.0
 30
0.0
210
0.0
220
0.0
230
1.0
  2
SOLID
 70
     1
 71
     0
 91
        1
 92
        1
 93
        4
 72
     1
 10
5.0
 20
-0.0000000000000006
 11
5.0
 21
0.6582624912261956
 72
     1
 10
5.0
 20
0.6582624912261956
 11
0.0
 21
0.0
 72
     1
 10
0.0
 20
0.0
 11
5.0
 21
-0.658262491226197
 72
     1
 10
5.0
 20
-0.658262491226197
 11
5.0
 21
-0.0000000000000007
 97
        0
 75
     0
 76
     1
 98
        0
  0
LINE
  5
76
330
6F
100
AcDbEntity
  8
Системный слой
  6
K5LT_THIN
 62
     0
370
    18
100
AcDbLine
 10
786.3928429782889
 20
271.2808230281013
 30
0.0
 11
785.3928429782889
 21
271.2808230281013
 31
0.0
  0
ENDBLK
  5
78
330
6F
100
AcDbEntity
  8
0
100
AcDbBlockEnd
  0
BLOCK
  5
7D
330
79
100
AcDbEntity
  8
0
100
AcDbBlockBegin
  2
KDIMARROW_07
 70
     0
 10
0.0
 20
0.0
 30
0.0
  3
KDIMARROW_07
  1

  0
LINE
  5
7A
330
79
100
AcDbEntity
  8
Системный слой
  6
K5LT_THIN
 62
     0
370
    18
100
AcDbLine
 10
0.0
 20
0.0
 30
0.0
 11
-5.0
 21
-0.6582624912261956
 31
0.0
  0
LINE
  5
7B
330
79
100
AcDbEntity
  8
Системный слой
  6
K5LT_THIN
 62
     0
370
    18
100
AcDbLine
 10
0.0
 20
0.0
 30
0.0
 11
-5.0
 21
0.658262491226197
 31
0.0
  0
LINE
  5
7C
330
79
100
AcDbEntity
  8
Системный слой
  6
K5LT_THIN
 62
     0
370
    18
100
AcDbLine
 10
786.3928429782889
 20
271.2808230281013
 30
0.0
 11
785.3928429782889
 21
271.2808230281013
 31
0.0
  0
ENDBLK
  5
7E
330
79
100
AcDbEntity
  8
0
100
AcDbBlockEnd
  0
BLOCK
  5
84
330
7F
100
AcDbEntity
  8
0
100
AcDbBlockBegin
  2
KDIMARROW_08
 70
     0
 10
0.0
 20
0.0
 30
0.0
  3
KDIMARROW_08
  1

  0
LINE
  5
80
330
7F
100
AcDbEntity
  8
Системный слой
  6
K5LT_THIN
 62
     0
370
    18
100
AcDbLine
 10
0.0
 20
0.0
 30
0.0
 11
5.0
 21
-0.658262491226197
 31
0.0
  0
LINE
  5
81
330
7F
100
AcDbEntity
  8
Системный слой
  6
K5LT_THIN
 62
     0
370
    18
100
AcDbLine
 10
0.0
 20
0.0
 30
0.0
 11
5.0
 21
0.6582624912261956
 31
0.0
  0
LINE
  5
82
330
7F
100
AcDbEntity
  8
Системный слой
  6
K5LT_THIN
 62
     0
370
    18
100
AcDbLine
 10
0.0
 20
0.0
 30
0.0
 11
7.0
 21
-0.0000000000000009
 31
0.0
  0
LINE
  5
83
330
7F
100
AcDbEntity
  8
Системный слой
  6
K5LT_THIN
 62
     0
370
    18
100
AcDbLine
 10
786.3928429782889
 20
271.2808230281013
 30
0.0
 11
785.3928429782889
 21
271.2808230281013
 31
0.0
  0
ENDBLK
  5
85
330
7F
100
AcDbEntity
  8
0
100
AcDbBlockEnd
  0
BLOCK
  5
8A
330
86
100
AcDbEntity
  8
0
100
AcDbBlockBegin
  2
KDIMARROW_09
 70
     0
 10
0.0
 20
0.0
 30
0.0
  3
KDIMARROW_09
  1

  0
LINE
  5
87
330
86
100
AcDbEntity
  8
Системный слой
  6
K5LT_THIN
 62
     0
370
    18
100
AcDbLine
 10
0.0
 20
0.0
 30
0.0
 11
-2.0
 21
-2.0
 31
0.0
  0
LINE
  5
88
330
86
100
AcDbEntity
  8
Системный слой
  6
K5LT_THIN
 62
     0
370
    18
100
AcDbLine
 10
0.0
 20
0.0
 30
0.0
 11
-2.0
 21
2.0
 31
0.0
  0
LINE
  5
89
330
86
100
AcDbEntity
  8
Системный слой
  6
K5LT_THIN
 62
     0
370
    18
100
AcDbLine
 10
786.3928429782889
 20
271.2808230281013
 30
0.0
 11
785.3928429782889
 21
271.2808230281013
 31
0.0
  0
ENDBLK
  5
8B
330
86
100
AcDbEntity
  8
0
100
AcDbBlockEnd
  0
BLOCK
  5
91
330
8C
100
AcDbEntity
  8
0
100
AcDbBlockBegin
  2
KDIMARROW_10
 70
     0
 10
0.0
 20
0.0
 30
0.0
  3
KDIMARROW_10
  1

  0
LINE
  5
8D
330
8C
100
AcDbEntity
  8
Системный слой
  6
K5LT_THIN
 62
     0
370
    18
100
AcDbLine
 10
0.0
 20
0.0
 30
0.0
 11
2.0
 21
-2.0
 31
0.0
  0
LINE
  5
8E
330
8C
100
AcDbEntity
  8
Системный слой
  6
K5LT_THIN
 62
     0
370
    18
100
AcDbLine
 10
0.0
 20
0.0
 30
0.0
 11
2.0
 21
2.0
 31
0.0
  0
LINE
  5
8F
330
8C
100
AcDbEntity
  8
Системный слой
  6
K5LT_THIN
 62
     0
370
    18
100
AcDbLine
 10
0.0
 20
0.0
 30
0.0
 11
4.0
 21
-0.0000000000000005
 31
0.0
  0
LINE
  5
90
330
8C
100
AcDbEntity
  8
Системный слой
  6
K5LT_THIN
 62
     0
370
    18
100
AcDbLine
 10
786.3928429782889
 20
271.2808230281013
 30
0.0
 11
785.3928429782889
 21
271.2808230281013
 31
0.0
  0
ENDBLK
  5
92
330
8C
100
AcDbEntity
  8
0
100
AcDbBlockEnd
  0
BLOCK
  5
97
330
93
100
AcDbEntity
  8
0
100
AcDbBlockBegin
  2
KDIMARROW_11
 70
     0
 10
0.0
 20
0.0
 30
0.0
  3
KDIMARROW_11
  1

  0
CIRCLE
  5
94
330
93
100
AcDbEntity
  8
Системный слой
  6
K5LT_THIN
 62
     0
370
    18
100
AcDbCircle
 10
0.0
 20
0.0
 30
0.0
 40
2.5
  0
CIRCLE
  5
95
330
93
100
AcDbEntity
  8
Системный слой
  6
K5LT_THIN
 62
     0
370
    18
100
AcDbCircle
 10
0.0
 20
0.0
 30
0.0
 40
2.5
  0
LINE
  5
96
330
93
100
AcDbEntity
  8
Системный слой
  6
K5LT_THIN
 62
     0
370
    18
100
AcDbLine
 10
786.3928429782889
 20
271.2808230281013
 30
0.0
 11
785.3928429782889
 21
271.2808230281013
 31
0.0
  0
ENDBLK
  5
98
330
93
100
AcDbEntity
  8
0
100
AcDbBlockEnd
  0
BLOCK
  5
9D
330
99
100
AcDbEntity
  8
0
100
AcDbBlockBegin
  2
KDIMARROW_12
 70
     0
 10
0.0
 20
0.0
 30
0.0
  3
KDIMARROW_12
  1

  0
CIRCLE
  5
9A
330
99
100
AcDbEntity
  8
Системный слой
  6
K5LT_THIN
 62
     0
370
    18
100
AcDbCircle
 10
0.0
 20
0.0
 30
0.0
 40
1.5
  0
CIRCLE
  5
9B
330
99
100
AcDbEntity
  8
Системный слой
  6
K5LT_THIN
 62
     0
370
    18
100
AcDbCircle
 10
0.0
 20
0.0
 30
0.0
 40
1.5
  0
LINE
  5
9C
330
99
100
AcDbEntity
  8
Системный слой
  6
K5LT_THIN
 62
     0
370
    18
100
AcDbLine
 10
786.3928429782889
 20
271.2808230281013
 30
0.0
 11
785.3928429782889
 21
271.2808230281013
 31
0.0
  0
ENDBLK
  5
9E
330
99
100
AcDbEntity
  8
0
100
AcDbBlockEnd
  0
BLOCK
  5
A3
330
9F
100
AcDbEntity
  8
0
100
AcDbBlockBegin
  2
KDIMARROW_13
 70
     0
 10
0.0
 20
0.0
 30
0.0
  3
KDIMARROW_13
  1

  0
LINE
  5
A0
330
9F
100
AcDbEntity
  8
Системный слой
  6
K5LT_THIN
 62
     0
370
    18
100
AcDbLine
 10
-1.060500025749206
 20
1.060500025749207
 30
0.0
 11
1.060500025749206
 21
-1.060500025749207
 31
0.0
  0
LINE
  5
A1
330
9F
100
AcDbEntity
  8
Системный слой
  6
K5LT_THIN
 62
     0
370
    18
100
AcDbLine
 10
0.0
 20
0.0
 30
0.0
 11
2.0
 21
-0.0000000000000002
 31
0.0
  0
LINE
  5
A2
330
9F
100
AcDbEntity
  8
Системный слой
  6
K5LT_THIN
 62
     0
370
    18
100
AcDbLine
 10
786.3928429782889
 20
271.2808230281013
 30
0.0
 11
785.3928429782889
 21
271.2808230281013
 31
0.0
  0
ENDBLK
  5
A4
330
9F
100
AcDbEntity
  8
0
100
AcDbBlockEnd
  0
BLOCK
  5
D8
330
C4
100
AcDbEntity
  8
0
100
AcDbBlockBegin
  2
U0
 70
     0
 10
0.0
 20
0.0
 30
0.0
  3
U0
  1

  0
MTEXT
  5
C7
330
C4
100
AcDbEntity
  8
Системный слой
 62
     7
100
AcDbMText
 10
384.2354353400671
 20
412.1792397856849
 30
0.0
 40
0.0
 41
0.0
 46
0.0
 71
     1
 72
     1
  1
\H3.5;\W0.965;\Q15;\Q0;\H7.00;1
  7
KTEXTSTYLE
 73
     1
 44
1.0
  0
MTEXT
  5
C8
330
C4
100
AcDbEntity
  8
Системный слой
 62
     7
100
AcDbMText
 10
384.2354353400671
 20
138.6891017317909
 30
0.0
 40
0.0
 41
0.0
 46
0.0
 71
     1
 72
     1
  1
\H3.5;\W0.965;\Q15;\Q0;\H7.00;1
  7
KTEXTSTYLE
 73
     1
 44
1.0
  0
LINE
  5
CA
330
C4
100
AcDbEntity
  8
Системный слой
  6
K5LT_REINFORCED
 62
   134
420
    38550
370
   100
100
AcDbLine
 10
396.9671923848592
 20
405.5308230281013
 30
0.0
 11
396.9671923848592
 21
395.5308230281013
 31
0.0
  0
LINE
  5
CB
330
C4
100
AcDbEntity
  8
Системный слой
  6
K5LT_REINFORCED
 62
   134
420
    38550
370
   100
100
AcDbLine
 10
396.9671923848592
 20
147.0308230281013
 30
0.0
 11
396.9671923848592
 21
137.0308230281013
 31
0.0
  0
LINE
  5
CC
330
C4
100
AcDbEntity
  8
Системный слой
  6
K5LT_THIN
 62
     7
370
    18
100
AcDbLine
 10
396.9671923848592
 20
403.0308230281013
 30
0.0
 11
389.4671923848592
 21
402.043429291262
 31
0.0
  0
LINE
  5
CD
330
C4
100
AcDbEntity
  8
Системный слой
  6
K5LT_THIN
 62
     7
370
    18
100
AcDbLine
 10
389.4671923848592
 20
402.043429291262
 30
0.0
 11
390.2171923848592
 21
403.0308230281013
 31
0.0
  0
LINE
  5
CE
330
C4
100
AcDbEntity
  8
Системный слой
  6
K5LT_THIN
 62
     7
370
    18
100
AcDbLine
 10
390.2171923848592
 20
403.0308230281013
 30
0.0
 11
389.4671923848592
 21
404.0182167649406
 31
0.0
  0
LINE
  5
CF
330
C4
100
AcDbEntity
  8
Системный слой
  6
K5LT_THIN
 62
     7
370
    18
100
AcDbLine
 10
389.4671923848592
 20
404.0182167649406
 30
0.0
 11
396.9671923848592
 21
403.0308230281013
 31
0.0
  0
HATCH
  5
D0
330
C4
100
AcDbEntity
  8
Системный слой
 62
     7
100
AcDbHatch
 10
0.0
 20
0.0
 30
0.0
210
0.0
220
0.0
230
1.0
  2
SOLID
 70
     1
 71
     0
 91
        1
 92
        1
 93
        4
 72
     1
 10
396.9671923848592
 20
403.0308230281013
 11
389.4671923848592
 21
404.0182167649406
 72
     1
 10
389.4671923848592
 20
404.0182167649406
 11
390.2171923848592
 21
403.0308230281013
 72
     1
 10
390.2171923848592
 20
403.0308230281013
 11
389.4671923848592
 21
402.043429291262
 72
     1
 10
389.4671923848592
 20
402.043429291262
 11
396.9671923848592
 21
403.0308230281013
 97
        0
 75
     0
 76
     1
 98
        0
  0
LINE
  5
D1
330
C4
100
AcDbEntity
  8
Системный слой
  6
K5LT_THIN
 62
     7
370
    18
100
AcDbLine
 10
381.9671923848592
 20
403.0308230281013
 30
0.0
 11
396.9671923848592
 21
403.0308230281013
 31
0.0
  0
LINE
  5
D2
330
C4
100
AcDbEntity
  8
Системный слой
  6
K5LT_THIN
 62
     7
370
    18
100
AcDbLine
 10
396.9671923848592
 20
139.5308230281013
 30
0.0
 11
389.4671923848592
 21
138.543429291262
 31
0.0
  0
LINE
  5
D3
330
C4
100
AcDbEntity
  8
Системный слой
  6
K5LT_THIN
 62
     7
370
    18
100
AcDbLine
 10
389.4671923848592
 20
138.543429291262
 30
0.0
 11
390.2171923848592
 21
139.5308230281013
 31
0.0
  0
LINE
  5
D4
330
C4
100
AcDbEntity
  8
Системный слой
  6
K5LT_THIN
 62
     7
370
    18
100
AcDbLine
 10
390.2171923848592
 20
139.5308230281013
 30
0.0
 11
389.4671923848592
 21
140.5182167649406
 31
0.0
  0
LINE
  5
D5
330
C4
100
AcDbEntity
  8
Системный слой
  6
K5LT_THIN
 62
     7
370
    18
100
AcDbLine
 10
389.4671923848592
 20
140.5182167649406
 30
0.0
 11
396.9671923848592
 21
139.5308230281013
 31
0.0
  0
HATCH
  5
D6
330
C4
100
AcDbEntity
  8
Системный слой
 62
     7
100
AcDbHatch
 10
0.0
 20
0.0
 30
0.0
210
0.0
220
0.0
230
1.0
  2
SOLID
 70
     1
 71
     0
 91
        1
 92
        1
 93
        4
 72
     1
 10
396.9671923848592
 20
139.5308230281013
 11
389.4671923848592
 21
140.5182167649406
 72
     1
 10
389.4671923848592
 20
140.5182167649406
 11
390.2171923848592
 21
139.5308230281013
 72
     1
 10
390.2171923848592
 20
139.5308230281013
 11
389.4671923848592
 21
138.543429291262
 72
     1
 10
389.4671923848592
 20
138.543429291262
 11
396.9671923848592
 21
139.5308230281013
 97
        0
 75
     0
 76
     1
 98
        0
  0
LINE
  5
D7
330
C4
100
AcDbEntity
  8
Системный слой
  6
K5LT_THIN
 62
     7
370
    18
100
AcDbLine
 10
381.9671923848592
 20
139.5308230281013
 30
0.0
 11
396.9671923848592
 21
139.5308230281013
 31
0.0
  0
ENDBLK
  5
D9
330
C4
100
AcDbEntity
  8
0
100
AcDbBlockEnd
  0
BLOCK
  5
F7
330
F3
100
AcDbEntity
  8
0
100
AcDbBlockBegin
  2
U1
 70
     0
 10
0.0
 20
0.0
 30
0.0
  3
U1
  1

  0
LINE
  5
F5
330
F3
100
AcDbEntity
  8
Системный слой
  6
K5LT_BASIC
 62
     5
420
      255
370
    60
100
AcDbLine
 10
592.0959477807367
 20
179.2808230281013
 30
0.0
 11
592.0959477807367
 21
213.0308230281013
 31
0.0
  0
LINE
  5
F6
330
F3
100
AcDbEntity
  8
Системный слой
  6
K5LT_BASIC
 62
     5
420
      255
370
    60
100
AcDbLine
 10
592.0959477807367
 20
329.5308230281013
 30
0.0
 11
592.0959477807367
 21
363.2808230281013
 31
0.0
  0
ENDBLK
  5
F8
330
F3
100
AcDbEntity
  8
0
100
AcDbBlockEnd
  0
BLOCK
  5
FD
330
F9
100
AcDbEntity
  8
0
100
AcDbBlockBegin
  2
U2
 70
     0
 10
0.0
 20
0.0
 30
0.0
  3
U2
  1

  0
LINE
  5
FB
330
F9
100
AcDbEntity
  8
Системный слой
  6
K5LT_BASIC
 62
     5
420
      255
370
    60
100
AcDbLine
 10
584.7959477807367
 20
179.2808230281013
 30
0.0
 11
584.7959477807367
 21
213.0308230281013
 31
0.0
  0
LINE
  5
FC
330
F9
100
AcDbEntity
  8
Системный слой
  6
K5LT_BASIC
 62
     5
420
      255
370
    60
100
AcDbLine
 10
584.7959477807367
 20
329.5308230281013
 30
0.0
 11
584.7959477807367
 21
363.2808230281013
 31
0.0
  0
ENDBLK
  5
FE
330
F9
100
AcDbEntity
  8
0
100
AcDbBlockEnd
  0
BLOCK
  5
13E
330
13A
100
AcDbEntity
  8
0
100
AcDbBlockBegin
  2
U3
 70
     0
 10
0.0
 20
0.0
 30
0.0
  3
U3
  1

  0
MTEXT
  5
13C
330
13A
100
AcDbEntity
  8
Системный слой
 62
     7
100
AcDbMText
 10
556.4807416344968
 20
410.5999899270066
 30
0.0
 40
0.0
 41
0.0
 46
0.0
 71
     1
 72
     1
  1
\H3.5;\W0.965;\Q15;\Q0;\H10.00;{\c16711680;Разрез 1-1}
  7
KTEXTSTYLE
 73
     1
 44
1.0
  0
MTEXT
  5
13D
330
13A
100
AcDbEntity
  8
Системный слой
 62
     7
100
AcDbMText
 10
608.6775609399167
 20
410.5999899270066
 30
0.0
 40
0.0
 41
0.0
 46
0.0
 71
     1
 72
     1
  1
\H3.5;\W0.965;\Q15;\Q0;\H10.00; 
  7
KTEXTSTYLE
 73
     1
 44
1.0
  0
ENDBLK
  5
13F
330
13A
100
AcDbEntity
  8
0
100
AcDbBlockEnd
  0
BLOCK
  5
17F
330
16D
100
AcDbEntity
  8
0
100
AcDbBlockBegin
  2
D0
 70
     0
 10
0.0
 20
0.0
 30
0.0
  3
D0
  1

  0
WIPEOUT
  5
16F
330
16D
100
AcDbEntity
  8
0
160
               152
310
98000000040000000C0000000E000000120000000C00000016000000000000C20C00000014000000010000006C000000070000000400000085D4D2FD13B16C40E2BF4CF3B39F774000000000000000004DE5E0FF052A6D40EEE383BD9DFF774000000000000000000C9E1B2625516E40B1DFC77C94A2774000000000000000
310
00438D0D2433D86D40A5BB90B2AA4277400000000000000000
100
AcDbWipeout
 90
        0
 10
229.5336903684403
 20
372.1666741994508
 30
0.0
 11
13.00209440437558
 21
0.0
 31
0.0
 12
0.0
 22
13.00209440437558
 32
0.0
 13
1.0
 23
1.0
340
0
 70
     7
280
     1
281
    50
282
    50
283
     0
360
0
 71
     2
 91
        5
 14
-0.5000000000000036
 24
0.0527828963277948
 14
-0.2093128323828743
 24
-0.4082641801520595
 14
0.4999999999999964
 24
0.0389529235201493
 14
0.2093128323828672
 24
0.5000000000000036
 14
-0.5000000000000036
 24
0.0527828963277948
290
     0
  0
LINE
  5
170
330
16D
100
AcDbEntity
  8
Системный слой
  6
K5LT_THIN
 62
     7
370
    18
100
AcDbLine
 10
424.4590466690175
 20
253.9473886304232
 30
0.0
 11
419.8784552496663
 21
256.057244491927
 31
0.0
  0
LINE
  5
171
330
16D
100
AcDbEntity
  8
Системный слой
  6
K5LT_THIN
 62
     7
370
    18
100
AcDbLine
 10
419.8784552496663
 20
256.057244491927
 30
0.0
 11
420.6524822296725
 21
256.3474026239479
 31
0.0
  0
LINE
  5
172
330
16D
100
AcDbEntity
  8
Системный слой
  6
K5LT_THIN
 62
     7
370
    18
100
AcDbLine
 10
420.6524822296725
 20
256.3474026239479
 30
0.0
 11
420.5806060009353
 21
257.1708971989742
 31
0.0
  0
LINE
  5
173
330
16D
100
AcDbEntity
  8
Системный слой
  6
K5LT_THIN
 62
     7
370
    18
100
AcDbLine
 10
420.5806060009353
 20
257.1708971989742
 30
0.0
 11
424.4590466690175
 21
253.9473886304232
 31
0.0
  0
HATCH
  5
174
330
16D
100
AcDbEntity
  8
Системный слой
 62
     7
100
AcDbHatch
 10
0.0
 20
0.0
 30
0.0
210
0.0
220
0.0
230
1.0
  2
SOLID
 70
     1
 71
     0
 91
        1
 92
        1
 93
        4
 72
     1
 10
424.4590466690175
 20
253.9473886304232
 11
420.5806060009353
 21
257.1708971989742
 72
     1
 10
420.5806060009353
 20
257.1708971989742
 11
420.6524822296725
 21
256.3474026239479
 72
     1
 10
420.6524822296725
 20
256.3474026239479
 11
419.8784552496663
 21
256.057244491927
 72
     1
 10
419.8784552496663
 20
256.057244491927
 11
424.4590466690175
 21
253.9473886304232
 97
        0
 75
     0
 76
     1
 98
        0
  0
LINE
  5
175
330
16D
100
AcDbEntity
  8
Системный слой
  6
K5LT_THIN
 62
     7
370
    18
100
AcDbLine
 10
369.475338100701
 20
288.6142574257794
 30
0.0
 11
374.0559295200521
 21
286.5044015642756
 31
0.0
  0
LINE
  5
176
330
16D
100
AcDbEntity
  8
Системный слой
  6
K5LT_THIN
 62
     7
370
    18
100
AcDbLine
 10
374.0559295200521
 20
286.5044015642756
 30
0.0
 11
373.281902540046
 21
286.2142434322547
 31
0.0
  0
LINE
  5
177
330
16D
100
AcDbEntity
  8
Системный слой
  6
K5LT_THIN
 62
     7
370
    18
100
AcDbLine
 10
373.281902540046
 20
286.2142434322547
 30
0.0
 11
373.3537787687832
 21
285.3907488572283
 31
0.0
  0
LINE
  5
178
330
16D
100
AcDbEntity
  8
Системный слой
  6
K5LT_THIN
 62
     7
370
    18
100
AcDbLine
 10
373.3537787687832
 20
285.3907488572283
 30
0.0
 11
369.475338100701
 21
288.6142574257794
 31
0.0
  0
HATCH
  5
179
330
16D
100
AcDbEntity
  8
Системный слой
 62
     7
100
AcDbHatch
 10
0.0
 20
0.0
 30
0.0
210
0.0
220
0.0
230
1.0
  2
SOLID
 70
     1
 71
     0
 91
        1
 92
        1
 93
        4
 72
     1
 10
374.0559295200521
 20
286.5044015642756
 11
369.475338100701
 21
288.6142574257794
 72
     1
 10
369.475338100701
 20
288.6142574257794
 11
373.3537787687832
 21
285.3907488572283
 72
     1
 10
373.3537787687832
 20
285.3907488572283
 11
373.281902540046
 21
286.2142434322547
 72
     1
 10
373.281902540046
 20
286.2142434322547
 11
374.0559295200521
 21
286.5044015642756
 97
        0
 75
     0
 76
     1
 98
        0
  0
LINE
  5
17A
330
16D
100
AcDbEntity
  8
Системный слой
  6
K5LT_THIN
 62
     7
370
    18
100
AcDbLine
 10
424.4590466690175
 20
253.9473886304232
 30
0.0
 11
369.475338100701
 21
288.6142574257794
 31
0.0
  0
LINE
  5
17B
330
16D
100
AcDbEntity
  8
Системный слой
  6
K5LT_THIN
 62
     7
370
    18
100
AcDbLine
 10
369.475338100701
 20
288.6142574257794
 30
0.0
 11
227.3298809046329
 21
378.2360389094597
 31
0.0
  0
ARC
  5
17C
330
16D
100
AcDbEntity
  8
Системный слой
  6
K5LT_THIN
 62
     7
370
    18
100
AcDbCircle
 10
396.9671923848592
 20
271.2808230281013
 30
0.0
 40
32.5
100
AcDbArc
 50
118.6478897565159
 51
151.29361878384
  0
MTEXT
  5
17D
330
16D
100
AcDbEntity
  8
Системный слой
 62
     7
100
AcDbMText
 10
233.0683776342864
 20
383.5876567004605
 30
0.0
 40
0.0
 41
0.0
 46
0.0
 71
     1
 72
     1
  1
\H3.5;\W0.965;\Q15;\Q15;\H5.00;∅
  7
KTEXTSTYLE
 11
0.8459032087433436
 21
-0.533336443005459
 31
0.0
 73
     1
 44
1.0
  0
MTEXT
  5
17E
330
16D
100
AcDbEntity
  8
Системный слой
 62
     7
100
AcDbMText
 10
236.064921599878
 20
381.6983553201141
 30
0.0
 40
0.0
 41
0.0
 46
0.0
 71
     1
 72
     1
  1
\H3.5;\W0.965;\Q15;\Q15;\H5.00;65
  7
KTEXTSTYLE
 11
0.8459032087433436
 21
-0.533336443005459
 31
0.0
 73
     1
 44
1.0
  0
ENDBLK
  5
180
330
16D
100
AcDbEntity
  8
0
100
AcDbBlockEnd
  0
BLOCK
  5
194
330
182
100
AcDbEntity
  8
0
100
AcDbBlockBegin
  2
D1
 70
     0
 10
0.0
 20
0.0
 30
0.0
  3
D1
  1

  0
WIPEOUT
  5
183
330
182
100
AcDbEntity
  8
0
160
               152
310
98000000040000000C0000000E000000120000000C00000016000000000000C20C00000014000000010000006C00000007000000040000005443FA7BD9F46E400CA16CAAF73B79400000000000000000148A7ADC868A6F404E77F1812591794000000000000000009C77E2554F4870402E6AA533021E794000000000000000
310
007AA8444BF1FA6F40EC93205CD4C878400000000000000000
100
AcDbWipeout
 90
        0
 10
247.6515483749342
 20
396.5518456718989
 30
0.0
 11
12.8678206404139
 21
0.0
 31
0.0
 12
0.0
 22
12.8678206404139
 32
0.0
 13
1.0
 23
1.0
340
0
 70
     7
280
     1
281
    50
282
    50
283
     0
360
0
 71
     2
 91
        5
 14
-0.5
 24
-0.0592337500558493
 14
-0.1365030015515849
 24
-0.4729550795433859
 14
0.5
 24
0.0862786705124634
 14
0.1365030015515885
 24
0.5
 14
-0.5
 24
-0.0592337500558493
290
     0
  0
LINE
  5
184
330
182
100
AcDbEntity
  8
Системный слой
  6
K5LT_THIN
 62
     7
370
    18
100
AcDbLine
 10
425.1384518115593
 20
246.5294565544384
 30
0.0
 11
420.9478066571671
 21
249.3351298599615
 31
0.0
  0
LINE
  5
185
330
182
100
AcDbEntity
  8
Системный слой
  6
K5LT_THIN
 62
     7
370
    18
100
AcDbLine
 10
420.9478066571671
 20
249.3351298599615
 30
0.0
 11
421.7579006803553
 21
249.499620531278
 31
0.0
  0
LINE
  5
186
330
182
100
AcDbEntity
  8
Системный слой
  6
K5LT_THIN
 62
     7
370
    18
100
AcDbLine
 10
421.7579006803553
 20
249.499620531278
 30
0.0
 11
421.8167611188314
 21
250.3241476418921
 31
0.0
  0
LINE
  5
187
330
182
100
AcDbEntity
  8
Системный слой
  6
K5LT_THIN
 62
     7
370
    18
100
AcDbLine
 10
421.8167611188314
 20
250.3241476418921
 30
0.0
 11
425.1384518115593
 21
246.5294565544384
 31
0.0
  0
HATCH
  5
188
330
182
100
AcDbEntity
  8
Системный слой
 62
     7
100
AcDbHatch
 10
0.0
 20
0.0
 30
0.0
210
0.0
220
0.0
230
1.0
  2
SOLID
 70
     1
 71
     0
 91
        1
 92
        1
 93
        4
 72
     1
 10
425.1384518115593
 20
246.5294565544384
 11
421.8167611188314
 21
250.3241476418921
 72
     1
 10
421.8167611188314
 20
250.3241476418921
 11
421.7579006803553
 21
249.499620531278
 72
     1
 10
421.7579006803553
 20
249.499620531278
 11
420.9478066571671
 21
249.3351298599615
 72
     1
 10
420.9478066571671
 20
249.3351298599615
 11
425.1384518115593
 21
246.5294565544384
 97
        0
 75
     0
 76
     1
 98
        0
  0
LINE
  5
189
330
182
100
AcDbEntity
  8
Системный слой
  6
K5LT_THIN
 62
     7
370
    18
100
AcDbLine
 10
368.7959329581591
 20
296.0321895017642
 30
0.0
 11
372.9865781125513
 21
293.2265161962411
 31
0.0
  0
LINE
  5
18A
330
182
100
AcDbEntity
  8
Системный слой
  6
K5LT_THIN
 62
     7
370
    18
100
AcDbLine
 10
372.9865781125513
 20
293.2265161962411
 30
0.0
 11
372.1764840893632
 21
293.0620255249246
 31
0.0
  0
LINE
  5
18B
330
182
100
AcDbEntity
  8
Системный слой
  6
K5LT_THIN
 62
     7
370
    18
100
AcDbLine
 10
372.1764840893632
 20
293.0620255249246
 30
0.0
 11
372.117623650887
 21
292.2374984143104
 31
0.0
  0
LINE
  5
18C
330
182
100
AcDbEntity
  8
Системный слой
  6
K5LT_THIN
 62
     7
370
    18
100
AcDbLine
 10
372.117623650887
 20
292.2374984143104
 30
0.0
 11
368.7959329581591
 21
296.0321895017642
 31
0.0
  0
HATCH
  5
18D
330
182
100
AcDbEntity
  8
Системный слой
 62
     7
100
AcDbHatch
 10
0.0
 20
0.0
 30
0.0
210
0.0
220
0.0
230
1.0
  2
SOLID
 70
     1
 71
     0
 91
        1
 92
        1
 93
        4
 72
     1
 10
372.9865781125513
 20
293.2265161962411
 11
368.7959329581591
 21
296.0321895017642
 72
     1
 10
368.7959329581591
 20
296.0321895017642
 11
372.117623650887
 21
292.2374984143104
 72
     1
 10
372.117623650887
 20
292.2374984143104
 11
372.1764840893632
 21
293.0620255249246
 72
     1
 10
372.1764840893632
 20
293.0620255249246
 11
372.9865781125513
 21
293.2265161962411
 97
        0
 75
     0
 76
     1
 98
        0
  0
LINE
  5
18E
330
182
100
AcDbEntity
  8
Системный слой
  6
K5LT_THIN
 62
     7
370
    18
100
AcDbLine
 10
425.1384518115593
 20
246.5294565544384
 30
0.0
 11
368.7959329581591
 21
296.0321895017642
 31
0.0
  0
LINE
  5
18F
330
182
100
AcDbEntity
  8
Системный слой
  6
K5LT_THIN
 62
     7
370
    18
100
AcDbLine
 10
368.7959329581591
 20
296.0321895017642
 30
0.0
 11
245.5154461482492
 21
404.3468538149837
 31
0.0
  0
ARC
  5
190
330
182
100
AcDbEntity
  8
Системный слой
  6
K5LT_THIN
 62
     7
370
    18
100
AcDbCircle
 10
396.9671923848592
 20
271.2808230281013
 30
0.0
 40
37.5
100
AcDbArc
 50
298.6478897565898
 51
321.752398965799
  0
ARC
  5
191
330
182
100
AcDbEntity
  8
Системный слой
  6
K5LT_THIN
 62
     7
370
    18
100
AcDbCircle
 10
396.9671923848592
 20
271.2808230281013
 30
0.0
 40
37.5
100
AcDbArc
 50
298.6478897565898
 51
321.752398965799
  0
MTEXT
  5
192
330
182
100
AcDbEntity
  8
Системный слой
 62
     7
100
AcDbMText
 10
252.0259398637902
 20
408.726765832034
 30
0.0
 40
0.0
 41
0.0
 46
0.0
 71
     1
 72
     1
  1
\H3.5;\W0.965;\Q15;\Q15;\H5.00;∅
  7
KTEXTSTYLE
 11
0.7512335847120283
 21
-0.6600364392976465
 31
0.0
 73
     1
 44
1.0
  0
MTEXT
  5
193
330
182
100
AcDbEntity
  8
Системный слой
 62
     7
100
AcDbMText
 10
254.6871243134423
 20
406.3886399225859
 30
0.0
 40
0.0
 41
0.0
 46
0.0
 71
     1
 72
     1
  1
\H3.5;\W0.965;\Q15;\Q15;\H5.00;75
  7
KTEXTSTYLE
 11
0.7512335847120283
 21
-0.6600364392976465
 31
0.0
 73
     1
 44
1.0
  0
ENDBLK
  5
195
330
182
100
AcDbEntity
  8
0
100
AcDbBlockEnd
  0
BLOCK
  5
1A9
330
197
100
AcDbEntity
  8
0
100
AcDbBlockBegin
  2
D2
 70
     0
 10
0.0
 20
0.0
 30
0.0
  3
D2
  1

  0
WIPEOUT
  5
198
330
197
100
AcDbEntity
  8
0
160
               152
310
98000000040000000C0000000E000000120000000C00000016000000000000C20C00000014000000010000006C0000000700000004000000A917DA8846B6704091FAB1348C207A400000000000000000DEE8F503E70A7140334E9799026C7A400000000000000000AC579B4714B57140D48CEBA12AAD794000000000000000
310
0076867FCC736071403339063DB46179400000000000000000
100
AcDbWipeout
 90
        0
 10
267.3922203559146
 20
406.1065035098174
 30
0.0
 11
16.64413124725979
 21
0.0
 31
0.0
 12
0.0
 22
16.64413124725979
 32
0.0
 13
1.0
 23
1.0
340
0
 70
     7
280
     1
281
    50
282
    50
283
     0
360
0
 71
     2
 91
        5
 14
-0.5
 24
-0.2166325628280177
 14
-0.1822195266911919
 24
-0.5
 14
0.4568075683601371
 24
0.2166325628280212
 14
0.139027095051329
 24
0.5
 14
-0.5
 24
-0.2166325628280177
290
     0
  0
LINE
  5
199
330
197
100
AcDbEntity
  8
Системный слой
  6
K5LT_THIN
 62
     7
370
    18
100
AcDbLine
 10
435.7348078166864
 20
227.8051459922004
 30
0.0
 11
431.915812372351
 21
231.0988647572897
 31
0.0
  0
LINE
  5
19A
330
197
100
AcDbEntity
  8
Системный слой
  6
K5LT_THIN
 62
     7
370
    18
100
AcDbLine
 10
431.915812372351
 20
231.0988647572897
 30
0.0
 11
432.739884736116
 21
231.1637819863902
 31
0.0
  0
LINE
  5
19B
330
197
100
AcDbEntity
  8
Системный слой
  6
K5LT_THIN
 62
     7
370
    18
100
AcDbLine
 10
432.739884736116
 20
231.1637819863902
 30
0.0
 11
432.8984186375321
 21
231.9750627697551
 31
0.0
  0
LINE
  5
19C
330
197
100
AcDbEntity
  8
Системный слой
  6
K5LT_THIN
 62
     7
370
    18
100
AcDbLine
 10
432.8984186375321
 20
231.9750627697551
 30
0.0
 11
435.7348078166864
 21
227.8051459922004
 31
0.0
  0
HATCH
  5
19D
330
197
100
AcDbEntity
  8
Системный слой
 62
     7
100
AcDbHatch
 10
0.0
 20
0.0
 30
0.0
210
0.0
220
0.0
230
1.0
  2
SOLID
 70
     1
 71
     0
 91
        1
 92
        1
 93
        4
 72
     1
 10
435.7348078166864
 20
227.8051459922004
 11
432.8984186375321
 21
231.9750627697551
 72
     1
 10
432.8984186375321
 20
231.9750627697551
 11
432.739884736116
 21
231.1637819863902
 72
     1
 10
432.739884736116
 20
231.1637819863902
 11
431.915812372351
 21
231.0988647572897
 72
     1
 10
431.915812372351
 20
231.0988647572897
 11
435.7348078166864
 21
227.8051459922004
 97
        0
 75
     0
 76
     1
 98
        0
  0
LINE
  5
19E
330
197
100
AcDbEntity
  8
Системный слой
  6
K5LT_THIN
 62
     7
370
    18
100
AcDbLine
 10
358.1995769530321
 20
314.7565000640021
 30
0.0
 11
362.0185723973674
 21
311.4627812989128
 31
0.0
  0
LINE
  5
19F
330
197
100
AcDbEntity
  8
Системный слой
  6
K5LT_THIN
 62
     7
370
    18
100
AcDbLine
 10
362.0185723973674
 20
311.4627812989128
 30
0.0
 11
361.1945000336024
 21
311.3978640698124
 31
0.0
  0
LINE
  5
1A0
330
197
100
AcDbEntity
  8
Системный слой
  6
K5LT_THIN
 62
     7
370
    18
100
AcDbLine
 10
361.1945000336024
 20
311.3978640698124
 30
0.0
 11
361.0359661321864
 21
310.5865832864475
 31
0.0
  0
LINE
  5
1A1
330
197
100
AcDbEntity
  8
Системный слой
  6
K5LT_THIN
 62
     7
370
    18
100
AcDbLine
 10
361.0359661321864
 20
310.5865832864475
 30
0.0
 11
358.1995769530321
 21
314.7565000640021
 31
0.0
  0
HATCH
  5
1A2
330
197
100
AcDbEntity
  8
Системный слой
 62
     7
100
AcDbHatch
 10
0.0
 20
0.0
 30
0.0
210
0.0
220
0.0
230
1.0
  2
SOLID
 70
     1
 71
     0
 91
        1
 92
        1
 93
        4
 72
     1
 10
362.0185723973674
 20
311.4627812989128
 11
358.1995769530321
 21
314.7565000640021
 72
     1
 10
358.1995769530321
 20
314.7565000640021
 11
361.0359661321864
 21
310.5865832864475
 72
     1
 10
361.0359661321864
 20
310.5865832864475
 11
361.1945000336024
 21
311.3978640698124
 72
     1
 10
361.1945000336024
 20
311.3978640698124
 11
362.0185723973674
 21
311.4627812989128
 97
        0
 75
     0
 76
     1
 98
        0
  0
LINE
  5
1A3
330
197
100
AcDbEntity
  8
Системный слой
  6
K5LT_THIN
 62
     7
370
    18
100
AcDbLine
 10
435.7348078166864
 20
227.8051459922004
 30
0.0
 11
358.1995769530321
 21
314.7565000640021
 31
0.0
  0
LINE
  5
1A4
330
197
100
AcDbEntity
  8
Системный слой
  6
K5LT_THIN
 62
     7
370
    18
100
AcDbLine
 10
358.1995769530321
 20
314.7565000640021
 30
0.0
 11
265.3446343337084
 21
418.888040050096
 31
0.0
  0
ARC
  5
1A5
330
197
100
AcDbEntity
  8
Системный слой
  6
K5LT_THIN
 62
     7
370
    18
100
AcDbCircle
 10
396.9671923848592
 20
271.2808230281013
 30
0.0
 40
58.25
100
AcDbArc
 50
309.756604185503
 51
298.6478897565523
  0
ARC
  5
1A6
330
197
100
AcDbEntity
  8
Системный слой
  6
K5LT_THIN
 62
     7
370
    18
100
AcDbCircle
 10
396.9671923848592
 20
271.2808230281013
 30
0.0
 40
58.25
100
AcDbArc
 50
309.756604185503
 51
298.6478897565523
  0
MTEXT
  5
1A7
330
197
100
AcDbEntity
  8
Системный слой
 62
     7
100
AcDbMText
 10
272.3387447975661
 20
422.4450860881108
 30
0.0
 40
0.0
 41
0.0
 46
0.0
 71
     1
 72
     1
  1
\H3.5;\W0.965;\Q15;\Q15;\H5.00;∅
  7
KTEXTSTYLE
 11
0.6655384623489731
 21
-0.7463635542643844
 31
0.0
 73
     1
 44
1.0
  0
MTEXT
  5
1A8
330
197
100
AcDbEntity
  8
Системный слой
 62
     7
100
AcDbMText
 10
274.6963611803952
 20
419.8011533289585
 30
0.0
 40
0.0
 41
0.0
 46
0.0
 71
     1
 72
     1
  1
\H3.5;\W0.965;\Q15;\Q15;\H5.00;116,5
  7
KTEXTSTYLE
 11
0.6655384623489731
 21
-0.7463635542643844
 31
0.0
 73
     1
 44
1.0
  0
ENDBLK
  5
1AA
330
197
100
AcDbEntity
  8
0
100
AcDbBlockEnd
  0
BLOCK
  5
1BC
330
1AC
100
AcDbEntity
  8
0
100
AcDbBlockBegin
  2
D3
 70
     0
 10
0.0
 20
0.0
 30
0.0
  3
D3
  1

  0
WIPEOUT
  5
1AD
330
1AC
100
AcDbEntity
  8
0
160
               152
310
98000000040000000C0000000E000000120000000C00000016000000000000C20C00000014000000010000006C00000007000000040000000BD79DC039367240D4AA254192987A40000000000000000014095FA476937240C0459FB417D97A400000000000000000C3F564F14E0C7340A06ED88D762A7A4000000000000000
310
00BAC3A30D12AF7240B4D35E1AF1E979400000000000000000
100
AcDbWipeout
 90
        0
 10
291.3890997090936
 20
414.6213630394151
 30
0.0
 11
14.94692444967296
 21
0.0
 31
0.0
 12
0.0
 22
14.94692444967296
 32
0.0
 13
1.0
 23
1.0
340
0
 70
     7
280
     1
281
    50
282
    50
283
     0
360
0
 71
     2
 91
        5
 14
-0.5000000000000036
 24
-0.2302066493836996
 14
-0.1101294509850526
 24
-0.5
 14
0.3951790394287222
 24
0.2302066493836996
 14
0.0053084904137748
 24
0.5
 14
-0.5000000000000036
 24
-0.2302066493836996
290
     0
  0
LINE
  5
1AE
330
1AC
100
AcDbEntity
  8
Системный слой
  6
K5LT_THIN
 62
     7
370
    18
100
AcDbLine
 10
449.3191581107552
 20
195.6285151675038
 30
0.0
 11
445.9326482708768
 21
199.3654739058046
 31
0.0
  0
LINE
  5
1AF
330
1AC
100
AcDbEntity
  8
Системный слой
  6
K5LT_THIN
 62
     7
370
    18
100
AcDbLine
 10
445.9326482708768
 20
199.3654739058046
 30
0.0
 11
446.758464135032
 21
199.32889979112
 31
0.0
  0
LINE
  5
1B0
330
1AC
100
AcDbEntity
  8
Системный слой
  6
K5LT_THIN
 62
     7
370
    18
100
AcDbLine
 10
446.758464135032
 20
199.32889979112
 30
0.0
 11
447.0152368934709
 21
200.1146333705723
 31
0.0
  0
LINE
  5
1B1
330
1AC
100
AcDbEntity
  8
Системный слой
  6
K5LT_THIN
 62
     7
370
    18
100
AcDbLine
 10
447.0152368934709
 20
200.1146333705723
 30
0.0
 11
449.3191581107552
 21
195.6285151675038
 31
0.0
  0
HATCH
  5
1B2
330
1AC
100
AcDbEntity
  8
Системный слой
 62
     7
100
AcDbHatch
 10
0.0
 20
0.0
 30
0.0
210
0.0
220
0.0
230
1.0
  2
SOLID
 70
     1
 71
     0
 91
        1
 92
        1
 93
        4
 72
     1
 10
449.3191581107552
 20
195.6285151675038
 11
447.0152368934709
 21
200.1146333705723
 72
     1
 10
447.0152368934709
 20
200.1146333705723
 11
446.758464135032
 21
199.32889979112
 72
     1
 10
446.758464135032
 20
199.32889979112
 11
445.9326482708768
 21
199.3654739058046
 72
     1
 10
445.9326482708768
 20
199.3654739058046
 11
449.3191581107552
 21
195.6285151675038
 97
        0
 75
     0
 76
     1
 98
        0
  0
LINE
  5
1B3
330
1AC
100
AcDbEntity
  8
Системный слой
  6
K5LT_THIN
 62
     7
370
    18
100
AcDbLine
 10
344.6152266589633
 20
346.9331308886988
 30
0.0
 11
348.0017364988417
 21
343.196172150398
 31
0.0
  0
LINE
  5
1B4
330
1AC
100
AcDbEntity
  8
Системный слой
  6
K5LT_THIN
 62
     7
370
    18
100
AcDbLine
 10
348.0017364988417
 20
343.196172150398
 30
0.0
 11
347.1759206346865
 21
343.2327462650826
 31
0.0
  0
LINE
  5
1B5
330
1AC
100
AcDbEntity
  8
Системный слой
  6
K5LT_THIN
 62
     7
370
    18
100
AcDbLine
 10
347.1759206346865
 20
343.2327462650826
 30
0.0
 11
346.9191478762476
 21
342.4470126856302
 31
0.0
  0
LINE
  5
1B6
330
1AC
100
AcDbEntity
  8
Системный слой
  6
K5LT_THIN
 62
     7
370
    18
100
AcDbLine
 10
346.9191478762476
 20
342.4470126856302
 30
0.0
 11
344.6152266589633
 21
346.9331308886988
 31
0.0
  0
HATCH
  5
1B7
330
1AC
100
AcDbEntity
  8
Системный слой
 62
     7
100
AcDbHatch
 10
0.0
 20
0.0
 30
0.0
210
0.0
220
0.0
230
1.0
  2
SOLID
 70
     1
 71
     0
 91
        1
 92
        1
 93
        4
 72
     1
 10
348.0017364988417
 20
343.196172150398
 11
344.6152266589633
 21
346.9331308886988
 72
     1
 10
344.6152266589633
 20
346.9331308886988
 11
346.9191478762476
 21
342.4470126856302
 72
     1
 10
346.9191478762476
 20
342.4470126856302
 11
347.1759206346865
 21
343.2327462650826
 72
     1
 10
347.1759206346865
 20
343.2327462650826
 11
348.0017364988417
 21
343.196172150398
 97
        0
 75
     0
 76
     1
 98
        0
  0
LINE
  5
1B8
330
1AC
100
AcDbEntity
  8
Системный слой
  6
K5LT_THIN
 62
     7
370
    18
100
AcDbLine
 10
449.3191581107552
 20
195.6285151675038
 30
0.0
 11
344.6152266589633
 21
346.9331308886988
 31
0.0
  0
LINE
  5
1B9
330
1AC
100
AcDbEntity
  8
Системный слой
  6
K5LT_THIN
 62
     7
370
    18
100
AcDbLine
 10
344.6152266589633
 20
346.9331308886988
 30
0.0
 11
289.461598017184
 21
426.6340406020665
 31
0.0
  0
MTEXT
  5
1BA
330
1AC
100
AcDbEntity
  8
Системный слой
 62
     7
100
AcDbMText
 10
296.8389439363018
 20
429.3070398326831
 30
0.0
 40
0.0
 41
0.0
 46
0.0
 71
     1
 72
     1
  1
\H3.5;\W0.965;\Q15;\Q15;\H5.00;∅
  7
KTEXTSTYLE
 11
0.5690431057162724
 21
-0.8223076941369206
 31
0.0
 73
     1
 44
1.0
  0
MTEXT
  5
1BB
330
1AC
100
AcDbEntity
  8
Системный слой
 62
     7
100
AcDbMText
 10
298.8547332925436
 20
426.3940810765787
 30
0.0
 40
0.0
 41
0.0
 46
0.0
 71
     1
 72
     1
  1
\H3.5;\W0.965;\Q15;\Q15;\H5.00;184
  7
KTEXTSTYLE
 11
0.5690431057162724
 21
-0.8223076941369206
 31
0.0
 73
     1
 44
1.0
  0
ENDBLK
  5
1BD
330
1AC
100
AcDbEntity
  8
0
100
AcDbBlockEnd
  0
BLOCK
  5
1D1
330
1BF
100
AcDbEntity
  8
0
100
AcDbBlockBegin
  2
D4
 70
     0
 10
0.0
 20
0.0
 30
0.0
  3
D4
  1

  0
WIPEOUT
  5
1C0
330
1BF
100
AcDbEntity
  8
0
160
               152
310
98000000040000000C0000000E000000120000000C00000016000000000000C20C00000014000000010000006C00000007000000040000007AE8CCF1AC737340175F2598501A7B4000000000000000009201378BA9D773401D26C1B2C84F7B40000000000000000055C92926546C74404315A289C7397A4000000000000000
310
003BB0BF8C570874403D4E066F4F047A400000000000000000
100
AcDbWipeout
 90
        0
 10
311.2297227863524
 20
416.2693929907144
 30
0.0
 11
20.71710560784959
 21
0.0
 31
0.0
 12
0.0
 22
20.71710560784959
 32
0.0
 13
1.0
 23
1.0
340
0
 70
     7
280
     1
281
    50
282
    50
283
     0
360
0
 71
     2
 91
        5
 14
-0.4999999999999982
 24
-0.3386926091846405
 14
-0.1983570068519303
 24
-0.4999999999999964
 14
0.2501444321232764
 24
0.3386926091846476
 14
-0.0514985610247933
 24
0.5000000000000036
 14
-0.4999999999999982
 24
-0.3386926091846405
290
     0
  0
LINE
  5
1C1
330
1BF
100
AcDbEntity
  8
Системный слой
  6
K5LT_THIN
 62
     7
370
    18
100
AcDbLine
 10
450.1401048313753
 20
171.8480792232803
 30
0.0
 11
447.2017838414385
 21
175.9468082052273
 31
0.0
  0
LINE
  5
1C2
330
1BF
100
AcDbEntity
  8
Системный слой
  6
K5LT_THIN
 62
     7
370
    18
100
AcDbLine
 10
447.2017838414385
 20
175.9468082052273
 30
0.0
 11
448.0180434346609
 21
175.8163099913399
 31
0.0
  0
LINE
  5
1C3
330
1BF
100
AcDbEntity
  8
Системный слой
  6
K5LT_THIN
 62
     7
370
    18
100
AcDbLine
 10
448.0180434346609
 20
175.8163099913399
 30
0.0
 11
448.3627338286133
 21
176.5676408370212
 31
0.0
  0
LINE
  5
1C4
330
1BF
100
AcDbEntity
  8
Системный слой
  6
K5LT_THIN
 62
     7
370
    18
100
AcDbLine
 10
448.3627338286133
 20
176.5676408370212
 30
0.0
 11
450.1401048313753
 21
171.8480792232803
 31
0.0
  0
HATCH
  5
1C5
330
1BF
100
AcDbEntity
  8
Системный слой
 62
     7
100
AcDbHatch
 10
0.0
 20
0.0
 30
0.0
210
0.0
220
0.0
230
1.0
  2
SOLID
 70
     1
 71
     0
 91
        1
 92
        1
 93
        4
 72
     1
 10
450.1401048313753
 20
171.8480792232803
 11
448.3627338286133
 21
176.5676408370212
 72
     1
 10
448.3627338286133
 20
176.5676408370212
 11
448.0180434346609
 21
175.8163099913399
 72
     1
 10
448.0180434346609
 20
175.8163099913399
 11
447.2017838414385
 21
175.9468082052273
 72
     1
 10
447.2017838414385
 20
175.9468082052273
 11
450.1401048313753
 21
171.8480792232803
 97
        0
 75
     0
 76
     1
 98
        0
  0
LINE
  5
1C6
330
1BF
100
AcDbEntity
  8
Системный слой
  6
K5LT_THIN
 62
     7
370
    18
100
AcDbLine
 10
343.7942799383432
 20
370.7135668329223
 30
0.0
 11
346.73260092828
 21
366.6148378509752
 31
0.0
  0
LINE
  5
1C7
330
1BF
100
AcDbEntity
  8
Системный слой
  6
K5LT_THIN
 62
     7
370
    18
100
AcDbLine
 10
346.73260092828
 20
366.6148378509752
 30
0.0
 11
345.9163413350576
 21
366.7453360648627
 31
0.0
  0
LINE
  5
1C8
330
1BF
100
AcDbEntity
  8
Системный слой
  6
K5LT_THIN
 62
     7
370
    18
100
AcDbLine
 10
345.9163413350576
 20
366.7453360648627
 30
0.0
 11
345.5716509411051
 21
365.9940052191814
 31
0.0
  0
LINE
  5
1C9
330
1BF
100
AcDbEntity
  8
Системный слой
  6
K5LT_THIN
 62
     7
370
    18
100
AcDbLine
 10
345.5716509411051
 20
365.9940052191814
 30
0.0
 11
343.7942799383432
 21
370.7135668329223
 31
0.0
  0
HATCH
  5
1CA
330
1BF
100
AcDbEntity
  8
Системный слой
 62
     7
100
AcDbHatch
 10
0.0
 20
0.0
 30
0.0
210
0.0
220
0.0
230
1.0
  2
SOLID
 70
     1
 71
     0
 91
        1
 92
        1
 93
        4
 72
     1
 10
346.73260092828
 20
366.6148378509752
 11
343.7942799383432
 21
370.7135668329223
 72
     1
 10
343.7942799383432
 20
370.7135668329223
 11
345.5716509411051
 21
365.9940052191814
 72
     1
 10
345.5716509411051
 20
365.9940052191814
 11
345.9163413350576
 21
366.7453360648627
 72
     1
 10
345.9163413350576
 20
366.7453360648627
 11
346.73260092828
 21
366.6148378509752
 97
        0
 75
     0
 76
     1
 98
        0
  0
LINE
  5
1CB
330
1BF
100
AcDbEntity
  8
Системный слой
  6
K5LT_THIN
 62
     7
370
    18
100
AcDbLine
 10
450.1401048313753
 20
171.8480792232803
 30
0.0
 11
343.7942799383432
 21
370.7135668329223
 31
0.0
  0
LINE
  5
1CC
330
1BF
100
AcDbEntity
  8
Системный слой
  6
K5LT_THIN
 62
     7
370
    18
100
AcDbLine
 10
343.7942799383432
 20
370.7135668329223
 30
0.0
 11
309.4400283897093
 21
434.9556279815873
 31
0.0
  0
ARC
  5
1CD
330
1BF
100
AcDbEntity
  8
Системный слой
  6
K5LT_THIN
 62
     7
370
    18
100
AcDbCircle
 10
396.9671923848592
 20
271.2808230281013
 30
0.0
 40
112.757390705
100
AcDbArc
 50
298.6478897565519
 51
299.152444812882
  0
ARC
  5
1CE
330
1BF
100
AcDbEntity
  8
Системный слой
  6
K5LT_THIN
 62
     7
370
    18
100
AcDbCircle
 10
396.9671923848592
 20
271.2808230281013
 30
0.0
 40
112.757390705
100
AcDbArc
 50
298.6478897565519
 51
299.152444812882
  0
MTEXT
  5
1CF
330
1BF
100
AcDbEntity
  8
Системный слой
 62
     7
100
AcDbMText
 10
317.0740448618249
 20
436.7700012068823
 30
0.0
 40
0.0
 41
0.0
 46
0.0
 71
     1
 72
     1
  1
\H3.5;\W0.965;\Q15;\Q15;\H5.00;∅
  7
KTEXTSTYLE
 11
0.4715691992698776
 21
-0.8818290595687843
 31
0.0
 73
     1
 44
1.0
  0
MTEXT
  5
1D0
330
1BF
100
AcDbEntity
  8
Системный слой
 62
     7
100
AcDbMText
 10
318.7445407576027
 20
433.646192809158
 30
0.0
 40
0.0
 41
0.0
 46
0.0
 71
     1
 72
     1
  1
\H3.5;\W0.965;\Q15;\Q15;\H5.00;225,51
  7
KTEXTSTYLE
 11
0.4715691992698776
 21
-0.8818290595687843
 31
0.0
 73
     1
 44
1.0
  0
ENDBLK
  5
1D2
330
1BF
100
AcDbEntity
  8
0
100
AcDbBlockEnd
  0
BLOCK
  5
1E6
330
1D4
100
AcDbEntity
  8
0
100
AcDbBlockBegin
  2
D5
 70
     0
 10
0.0
 20
0.0
 30
0.0
  3
D5
  1

  0
WIPEOUT
  5
1D5
330
1D4
100
AcDbEntity
  8
0
160
               152
310
98000000040000000C0000000E000000120000000C00000016000000000000C20C00000014000000010000006C0000000700000004000000FA600491D1A774406CDD6BC89C3A7B4000000000000000006FB0BBBAB310754092FD34E0B0657B400000000000000000504EA5667A887540E5E2CE4912427A4000000000000000
310
00DDFEED3C981F7540BEC20532FE167A400000000000000000
100
AcDbWipeout
 90
        0
 10
330.4886636897133
 20
417.4370594239262
 30
0.0
 11
20.9186231465257
 21
0.0
 31
0.0
 12
0.0
 22
20.9186231465257
 32
0.0
 13
1.0
 23
1.0
340
0
 70
     7
280
     1
281
    50
282
    50
283
     0
360
0
 71
     2
 91
        5
 14
-0.5
 24
-0.3712914575017052
 14
-0.1866325513459977
 24
-0.5
 14
0.1712305709021571
 24
0.3712914575017017
 14
-0.1421368777518417
 24
0.5
 14
-0.5
 24
-0.3712914575017052
290
     0
  0
LINE
  5
1D6
330
1D4
100
AcDbEntity
  8
Системный слой
  6
K5LT_THIN
 62
     7
370
    18
100
AcDbLine
 10
442.0865803800715
 20
161.4283825727453
 30
0.0
 11
439.5780318229757
 21
165.8033675606108
 31
0.0
  0
LINE
  5
1D7
330
1D4
100
AcDbEntity
  8
Системный слой
  6
K5LT_THIN
 62
     7
370
    18
100
AcDbLine
 10
439.5780318229757
 20
165.8033675606108
 30
0.0
 11
440.3768994518098
 21
165.5909528272321
 31
0.0
  0
LINE
  5
1D8
330
1D4
100
AcDbEntity
  8
Системный слой
  6
K5LT_THIN
 62
     7
370
    18
100
AcDbLine
 10
440.3768994518098
 20
165.5909528272321
 30
0.0
 11
440.7958379854747
 21
166.3035537059617
 31
0.0
  0
LINE
  5
1D9
330
1D4
100
AcDbEntity
  8
Системный слой
  6
K5LT_THIN
 62
     7
370
    18
100
AcDbLine
 10
440.7958379854747
 20
166.3035537059617
 30
0.0
 11
442.0865803800715
 21
161.4283825727453
 31
0.0
  0
HATCH
  5
1DA
330
1D4
100
AcDbEntity
  8
Системный слой
 62
     7
100
AcDbHatch
 10
0.0
 20
0.0
 30
0.0
210
0.0
220
0.0
230
1.0
  2
SOLID
 70
     1
 71
     0
 91
        1
 92
        1
 93
        4
 72
     1
 10
442.0865803800715
 20
161.4283825727453
 11
440.7958379854747
 21
166.3035537059617
 72
     1
 10
440.7958379854747
 20
166.3035537059617
 11
440.3768994518098
 21
165.5909528272321
 72
     1
 10
440.3768994518098
 20
165.5909528272321
 11
439.5780318229757
 21
165.8033675606108
 72
     1
 10
439.5780318229757
 20
165.8033675606108
 11
442.0865803800715
 21
161.4283825727453
 97
        0
 75
     0
 76
     1
 98
        0
  0
LINE
  5
1DB
330
1D4
100
AcDbEntity
  8
Системный слой
  6
K5LT_THIN
 62
     7
370
    18
100
AcDbLine
 10
351.847804389647
 20
381.1332634834572
 30
0.0
 11
354.3563529467427
 21
376.7582784955918
 31
0.0
  0
LINE
  5
1DC
330
1D4
100
AcDbEntity
  8
Системный слой
  6
K5LT_THIN
 62
     7
370
    18
100
AcDbLine
 10
354.3563529467427
 20
376.7582784955918
 30
0.0
 11
353.5574853179086
 21
376.9706932289704
 31
0.0
  0
LINE
  5
1DD
330
1D4
100
AcDbEntity
  8
Системный слой
  6
K5LT_THIN
 62
     7
370
    18
100
AcDbLine
 10
353.5574853179086
 20
376.9706932289704
 30
0.0
 11
353.1385467842438
 21
376.2580923502409
 31
0.0
  0
LINE
  5
1DE
330
1D4
100
AcDbEntity
  8
Системный слой
  6
K5LT_THIN
 62
     7
370
    18
100
AcDbLine
 10
353.1385467842438
 20
376.2580923502409
 30
0.0
 11
351.847804389647
 21
381.1332634834572
 31
0.0
  0
HATCH
  5
1DF
330
1D4
100
AcDbEntity
  8
Системный слой
 62
     7
100
AcDbHatch
 10
0.0
 20
0.0
 30
0.0
210
0.0
220
0.0
230
1.0
  2
SOLID
 70
     1
 71
     0
 91
        1
 92
        1
 93
        4
 72
     1
 10
354.3563529467427
 20
376.7582784955918
 11
351.847804389647
 21
381.1332634834572
 72
     1
 10
351.847804389647
 20
381.1332634834572
 11
353.1385467842438
 21
376.2580923502409
 72
     1
 10
353.1385467842438
 20
376.2580923502409
 11
353.5574853179086
 21
376.9706932289704
 72
     1
 10
353.5574853179086
 20
376.9706932289704
 11
354.3563529467427
 21
376.7582784955918
 97
        0
 75
     0
 76
     1
 98
        0
  0
LINE
  5
1E0
330
1D4
100
AcDbEntity
  8
Системный слой
  6
K5LT_THIN
 62
     7
370
    18
100
AcDbLine
 10
442.0865803800715
 20
161.4283825727453
 30
0.0
 11
351.847804389647
 21
381.1332634834572
 31
0.0
  0
LINE
  5
1E1
330
1D4
100
AcDbEntity
  8
Системный слой
  6
K5LT_THIN
 62
     7
370
    18
100
AcDbLine
 10
351.847804389647
 20
381.1332634834572
 30
0.0
 11
328.8407904058913
 21
437.148576323566
 31
0.0
  0
ARC
  5
1E2
330
1D4
100
AcDbEntity
  8
Системный слой
  6
K5LT_THIN
 62
     7
370
    18
100
AcDbCircle
 10
396.9671923848592
 20
271.2808230281013
 30
0.0
 40
118.757390705
100
AcDbArc
 50
298.6478897564348
 51
293.2941894098243
  0
ARC
  5
1E3
330
1D4
100
AcDbEntity
  8
Системный слой
  6
K5LT_THIN
 62
     7
370
    18
100
AcDbCircle
 10
396.9671923848592
 20
271.2808230281013
 30
0.0
 40
118.757390705
100
AcDbArc
 50
298.6478897564348
 51
293.2941894098243
  0
MTEXT
  5
1E4
330
1D4
100
AcDbEntity
  8
Системный слой
 62
     7
100
AcDbMText
 10
336.619204641317
 20
438.1812571451791
 30
0.0
 40
0.0
 41
0.0
 46
0.0
 71
     1
 72
     1
  1
\H3.5;\W0.965;\Q15;\Q15;\H5.00;∅
  7
KTEXTSTYLE
 11
0.3799290951692458
 21
-0.9250156121081839
 31
0.0
 73
     1
 44
1.0
  0
MTEXT
  5
1E5
330
1D4
100
AcDbEntity
  8
Системный слой
 62
     7
100
AcDbMText
 10
337.9650728514323
 20
434.9044638644694
 30
0.0
 40
0.0
 41
0.0
 46
0.0
 71
     1
 72
     1
  1
\H3.5;\W0.965;\Q15;\Q15;\H5.00;237,51
  7
KTEXTSTYLE
 11
0.3799290951692458
 21
-0.9250156121081839
 31
0.0
 73
     1
 44
1.0
  0
ENDBLK
  5
1E7
330
1D4
100
AcDbEntity
  8
0
100
AcDbBlockEnd
  0
BLOCK
  5
1F9
330
1E9
100
AcDbEntity
  8
0
100
AcDbBlockBegin
  2
D6
 70
     0
 10
0.0
 20
0.0
 30
0.0
  3
D6
  1

  0
WIPEOUT
  5
1EA
330
1E9
100
AcDbEntity
  8
0
160
               152
310
98000000040000000C0000000E000000120000000C00000016000000000000C20C00000014000000010000006C00000007000000040000003EC68562C1128D40A3C0D69B63D1774000000000000000008F61DB739CF08C4067DEAD74E72B784000000000000000004F78A488A0638D40F268264973D9784000000000000000
310
00FFDC4E77C5858D402F4B4F70EF7E78400000000000000000
100
AcDbWipeout
 90
        0
 10
926.0763928546093
 20
381.0868185414093
 30
0.0
 11
18.64502611370517
 21
0.0
 31
0.0
 12
0.0
 22
18.64502611370517
 32
0.0
 13
1.0
 23
1.0
340
0
 70
     7
280
     1
281
    50
282
    50
283
     0
360
0
 71
     2
 91
        5
 14
-0.271089977698324
 24
0.4999999999999964
 14
-0.5
 24
0.1965845377529618
 14
0.2710899776983169
 24
-0.3851597895938426
 14
0.5
 24
-0.0817443273468079
 14
-0.271089977698324
 24
0.4999999999999964
290
     0
  0
LINE
  5
1EB
330
1E9
100
AcDbEntity
  8
Системный слой
  6
K5LT_THIN
 62
     7
370
    18
100
AcDbLine
 10
687.204830684896
 20
196.4490068181112
 30
0.0
 11
690.7998494672348
 21
199.9858344166784
 31
0.0
  0
LINE
  5
1EC
330
1E9
100
AcDbEntity
  8
Системный слой
  6
K5LT_THIN
 62
     7
370
    18
100
AcDbLine
 10
690.7998494672348
 20
199.9858344166784
 30
0.0
 11
690.7971530617191
 21
199.1592134414106
 31
0.0
  0
LINE
  5
1ED
330
1E9
100
AcDbEntity
  8
Системный слой
  6
K5LT_THIN
 62
     7
370
    18
100
AcDbLine
 10
690.7971530617191
 20
199.1592134414106
 30
0.0
 11
691.5927505177195
 21
198.9348606046538
 31
0.0
  0
LINE
  5
1EE
330
1E9
100
AcDbEntity
  8
Системный слой
  6
K5LT_THIN
 62
     7
370
    18
100
AcDbLine
 10
691.5927505177195
 20
198.9348606046538
 30
0.0
 11
687.204830684896
 21
196.4490068181112
 31
0.0
  0
HATCH
  5
1EF
330
1E9
100
AcDbEntity
  8
Системный слой
 62
     7
100
AcDbHatch
 10
0.0
 20
0.0
 30
0.0
210
0.0
220
0.0
230
1.0
  2
SOLID
 70
     1
 71
     0
 91
        1
 92
        1
 93
        4
 72
     1
 10
691.5927505177195
 20
198.9348606046538
 11
690.7971530617191
 21
199.1592134414106
 72
     1
 10
690.7971530617191
 20
199.1592134414106
 11
690.7998494672348
 21
199.9858344166784
 72
     1
 10
690.7998494672348
 20
199.9858344166784
 11
687.204830684896
 21
196.4490068181112
 72
     1
 10
687.204830684896
 20
196.4490068181112
 11
691.5927505177195
 21
198.9348606046538
 97
        0
 75
     0
 76
     1
 98
        0
  0
LINE
  5
1F0
330
1E9
100
AcDbEntity
  8
Системный слой
  6
K5LT_THIN
 62
     7
370
    18
100
AcDbLine
 10
885.5808552716817
 20
346.1126392380914
 30
0.0
 11
881.9858364893429
 21
342.5758116395242
 31
0.0
  0
LINE
  5
1F1
330
1E9
100
AcDbEntity
  8
Системный слой
  6
K5LT_THIN
 62
     7
370
    18
100
AcDbLine
 10
881.9858364893429
 20
342.5758116395242
 30
0.0
 11
881.9885328948586
 21
343.402432614792
 31
0.0
  0
LINE
  5
1F2
330
1E9
100
AcDbEntity
  8
Системный слой
  6
K5LT_THIN
 62
     7
370
    18
100
AcDbLine
 10
881.9885328948586
 20
343.402432614792
 30
0.0
 11
881.1929354388582
 21
343.6267854515487
 31
0.0
  0
LINE
  5
1F3
330
1E9
100
AcDbEntity
  8
Системный слой
  6
K5LT_THIN
 62
     7
370
    18
100
AcDbLine
 10
881.1929354388582
 20
343.6267854515487
 30
0.0
 11
885.5808552716817
 21
346.1126392380914
 31
0.0
  0
HATCH
  5
1F4
330
1E9
100
AcDbEntity
  8
Системный слой
 62
     7
100
AcDbHatch
 10
0.0
 20
0.0
 30
0.0
210
0.0
220
0.0
230
1.0
  2
SOLID
 70
     1
 71
     0
 91
        1
 92
        1
 93
        4
 72
     1
 10
881.9858364893429
 20
342.5758116395242
 11
885.5808552716817
 21
346.1126392380914
 72
     1
 10
885.5808552716817
 20
346.1126392380914
 11
881.1929354388582
 21
343.6267854515487
 72
     1
 10
881.1929354388582
 20
343.6267854515487
 11
881.9885328948586
 21
343.402432614792
 72
     1
 10
881.9885328948586
 20
343.402432614792
 11
881.9858364893429
 21
342.5758116395242
 97
        0
 75
     0
 76
     1
 98
        0
  0
LINE
  5
1F5
330
1E9
100
AcDbEntity
  8
Системный слой
  6
K5LT_THIN
 62
     7
370
    18
100
AcDbLine
 10
687.204830684896
 20
196.4490068181112
 30
0.0
 11
885.5808552716817
 21
346.1126392380914
 31
0.0
  0
LINE
  5
1F6
330
1E9
100
AcDbEntity
  8
Системный слой
  6
K5LT_THIN
 62
     7
370
    18
100
AcDbLine
 10
885.5808552716817
 20
346.1126392380914
 30
0.0
 11
947.4952255386667
 21
392.823574052186
 31
0.0
  0
MTEXT
  5
1F7
330
1E9
100
AcDbEntity
  8
Системный слой
 62
     7
100
AcDbMText
 10
926.3528941216185
 20
386.377511093382
 30
0.0
 40
0.0
 41
0.0
 46
0.0
 71
     1
 72
     1
  1
\H3.5;\W0.965;\Q15;\Q15;\H5.00;∅
  7
KTEXTSTYLE
 11
0.7982938615162382
 21
0.6022681385109901
 31
0.0
 73
     1
 44
1.0
  0
MTEXT
  5
1F8
330
1E9
100
AcDbEntity
  8
Системный слой
 62
     7
100
AcDbMText
 10
929.1807858103723
 20
388.5109974514777
 30
0.0
 40
0.0
 41
0.0
 46
0.0
 71
     1
 72
     1
  1
\H3.5;\W0.965;\Q15;\Q15;\H5.00;248,5
  7
KTEXTSTYLE
 11
0.7982938615162382
 21
0.6022681385109901
 31
0.0
 73
     1
 44
1.0
  0
ENDBLK
  5
1FA
330
1E9
100
AcDbEntity
  8
0
100
AcDbBlockEnd
  0
BLOCK
  5
20C
330
1FC
100
AcDbEntity
  8
0
100
AcDbBlockBegin
  2
D7
 70
     0
 10
0.0
 20
0.0
 30
0.0
  3
D7
  1

  0
WIPEOUT
  5
1FD
330
1FC
100
AcDbEntity
  8
0
160
               152
310
98000000040000000C0000000E000000120000000C00000016000000000000C20C00000014000000010000006C0000000700000004000000E2507D67C3F68C40B089A446EF7D724000000000000000007BB371F5CFD88C402280789534DE72400000000000000000B671C45D461E8D4048136DD9A534734000000000000000
310
001F0FD0CF393C8D40D61C998A60D472400000000000000000
100
AcDbWipeout
 90
        0
 10
923.1015423663042
 20
295.8709169795283
 30
0.0
 11
12.42668603627362
 21
0.0
 31
0.0
 12
0.0
 22
12.42668603627362
 32
0.0
 13
1.0
 23
1.0
340
0
 70
     7
280
     1
281
    50
282
    50
283
     0
360
0
 71
     2
 91
        5
 14
-0.1987233879488741
 24
0.4999999999999964
 14
-0.5
 24
0.0158064779474749
 14
0.1987233879488599
 24
-0.4189556687862499
 14
0.5
 24
0.0652378532662716
 14
-0.1987233879488741
 24
0.4999999999999964
290
     0
  0
LINE
  5
1FE
330
1FC
100
AcDbEntity
  8
Системный слой
  6
K5LT_THIN
 62
     7
370
    18
100
AcDbLine
 10
883.1994502909743
 20
267.5827041327201
 30
0.0
 11
887.096968930924
 21
270.7831194118048
 31
0.0
  0
LINE
  5
1FF
330
1FC
100
AcDbEntity
  8
Системный слой
  6
K5LT_THIN
 62
     7
370
    18
100
AcDbLine
 10
887.096968930924
 20
270.7831194118048
 30
0.0
 11
887.0202027328194
 21
269.9600662797508
 31
0.0
  0
LINE
  5
200
330
1FC
100
AcDbEntity
  8
Системный слой
  6
K5LT_THIN
 62
     7
370
    18
100
AcDbLine
 10
887.0202027328194
 20
269.9600662797508
 30
0.0
 11
887.7924926329024
 21
269.665315847037
 31
0.0
  0
LINE
  5
201
330
1FC
100
AcDbEntity
  8
Системный слой
  6
K5LT_THIN
 62
     7
370
    18
100
AcDbLine
 10
887.7924926329024
 20
269.665315847037
 30
0.0
 11
883.1994502909743
 21
267.5827041327201
 31
0.0
  0
HATCH
  5
202
330
1FC
100
AcDbEntity
  8
Системный слой
 62
     7
100
AcDbHatch
 10
0.0
 20
0.0
 30
0.0
210
0.0
220
0.0
230
1.0
  2
SOLID
 70
     1
 71
     0
 91
        1
 92
        1
 93
        4
 72
     1
 10
887.7924926329024
 20
269.665315847037
 11
887.0202027328194
 21
269.9600662797508
 72
     1
 10
887.0202027328194
 20
269.9600662797508
 11
887.096968930924
 21
270.7831194118048
 72
     1
 10
887.096968930924
 20
270.7831194118048
 11
883.1994502909743
 21
267.5827041327201
 72
     1
 10
883.1994502909743
 20
267.5827041327201
 11
887.7924926329024
 21
269.665315847037
 97
        0
 75
     0
 76
     1
 98
        0
  0
LINE
  5
203
330
1FC
100
AcDbEntity
  8
Системный слой
  6
K5LT_THIN
 62
     7
370
    18
100
AcDbLine
 10
895.0862356656035
 20
274.9789419234824
 30
0.0
 11
891.1887170256537
 21
271.7785266443977
 31
0.0
  0
LINE
  5
204
330
1FC
100
AcDbEntity
  8
Системный слой
  6
K5LT_THIN
 62
     7
370
    18
100
AcDbLine
 10
891.1887170256537
 20
271.7785266443977
 30
0.0
 11
891.2654832237583
 21
272.6015797764517
 31
0.0
  0
LINE
  5
205
330
1FC
100
AcDbEntity
  8
Системный слой
  6
K5LT_THIN
 62
     7
370
    18
100
AcDbLine
 10
891.2654832237583
 20
272.6015797764517
 30
0.0
 11
890.4931933236753
 21
272.8963302091655
 31
0.0
  0
LINE
  5
206
330
1FC
100
AcDbEntity
  8
Системный слой
  6
K5LT_THIN
 62
     7
370
    18
100
AcDbLine
 10
890.4931933236753
 20
272.8963302091655
 30
0.0
 11
895.0862356656035
 21
274.9789419234824
 31
0.0
  0
HATCH
  5
207
330
1FC
100
AcDbEntity
  8
Системный слой
 62
     7
100
AcDbHatch
 10
0.0
 20
0.0
 30
0.0
210
0.0
220
0.0
230
1.0
  2
SOLID
 70
     1
 71
     0
 91
        1
 92
        1
 93
        4
 72
     1
 10
891.1887170256537
 20
271.7785266443977
 11
895.0862356656035
 21
274.9789419234824
 72
     1
 10
895.0862356656035
 20
274.9789419234824
 11
890.4931933236753
 21
272.8963302091655
 72
     1
 10
890.4931933236753
 20
272.8963302091655
 11
891.2654832237583
 21
272.6015797764517
 72
     1
 10
891.2654832237583
 20
272.6015797764517
 11
891.1887170256537
 21
271.7785266443977
 97
        0
 75
     0
 76
     1
 98
        0
  0
LINE
  5
208
330
1FC
100
AcDbEntity
  8
Системный слой
  6
K5LT_THIN
 62
     7
370
    18
100
AcDbLine
 10
883.1994502909743
 20
267.5827041327201
 30
0.0
 11
895.0862356656035
 21
274.9789419234824
 31
0.0
  0
LINE
  5
209
330
1FC
100
AcDbEntity
  8
Системный слой
  6
K5LT_THIN
 62
     7
370
    18
100
AcDbLine
 10
895.0862356656035
 20
274.9789419234824
 30
0.0
 11
938.0952952577894
 21
301.7401916537778
 31
0.0
  0
MTEXT
  5
20A
330
1FC
100
AcDbEntity
  8
Системный слой
 62
     7
100
AcDbMText
 10
923.3440861045354
 20
301.4980362540734
 30
0.0
 40
0.0
 41
0.0
 46
0.0
 71
     1
 72
     1
  1
\H3.5;\W0.965;\Q15;\Q15;\H5.00;∅
  7
KTEXTSTYLE
 11
0.8490560981877978
 21
0.5283026993401725
 31
0.0
 73
     1
 44
1.0
  0
MTEXT
  5
20B
330
1FC
100
AcDbEntity
  8
Системный слой
 62
     7
100
AcDbMText
 10
926.3517989269671
 20
303.3695060030361
 30
0.0
 40
0.0
 41
0.0
 46
0.0
 71
     1
 72
     1
  1
\H3.5;\W0.965;\Q15;\Q15;\H5.00;14
  7
KTEXTSTYLE
 11
0.8490560981877978
 21
0.5283026993401725
 31
0.0
 73
     1
 44
1.0
  0
ENDBLK
  5
20D
330
1FC
100
AcDbEntity
  8
0
100
AcDbBlockEnd
  0
BLOCK
  5
221
330
20F
100
AcDbEntity
  8
0
100
AcDbBlockBegin
  2
D8
 70
     0
 10
0.0
 20
0.0
 30
0.0
  3
D8
  1

  0
WIPEOUT
  5
210
330
20F
100
AcDbEntity
  8
0
160
               152
310
98000000040000000C0000000E000000120000000C00000016000000000000C20C00000014000000010000006C0000000700000004000000A04CB966C4F38B40772EDF6C486C774000000000000000008F61C2B16DCF8B4079C5EC3450C377400000000000000000E4FDEA9B9A188C40AD44E331873D784000000000000000
310
00F4E8E150F13C8C40ABADD5697FE677400000000000000000
100
AcDbWipeout
 90
        0
 10
889.9285617052097
 20
374.767681953242
 30
0.0
 11
13.68926834709112
 21
0.0
 31
0.0
 12
0.0
 22
13.68926834709112
 32
0.0
 13
1.0
 23
1.0
340
0
 70
     7
280
     1
281
    50
282
    50
283
     0
360
0
 71
     2
 91
        5
 14
-0.1681826059094362
 24
0.4999999999999964
 14
-0.4999999999999858
 24
0.1026522651212112
 14
0.1681826059094647
 24
-0.4553340818681306
 14
0.5000000000000142
 24
-0.0579863469893453
 14
-0.1681826059094362
 24
0.4999999999999964
290
     0
  0
LINE
  5
211
330
20F
100
AcDbEntity
  8
Системный слой
  6
K5LT_THIN
 62
     7
370
    18
100
AcDbLine
 10
855.7859292675574
 20
341.2118986672067
 30
0.0
 11
851.5261926546859
 21
338.5122776759715
 31
0.0
  0
LINE
  5
212
330
20F
100
AcDbEntity
  8
Системный слой
  6
K5LT_THIN
 62
     7
370
    18
100
AcDbLine
 10
851.5261926546859
 20
338.5122776759715
 30
0.0
 11
852.3319034677123
 21
338.3275086495419
 31
0.0
  0
LINE
  5
213
330
20F
100
AcDbEntity
  8
Системный слой
  6
K5LT_THIN
 62
     7
370
    18
100
AcDbLine
 10
852.3319034677123
 20
338.3275086495419
 30
0.0
 11
852.3700529918842
 21
337.5017640636312
 31
0.0
  0
LINE
  5
214
330
20F
100
AcDbEntity
  8
Системный слой
  6
K5LT_THIN
 62
     7
370
    18
100
AcDbLine
 10
852.3700529918842
 20
337.5017640636312
 30
0.0
 11
855.7859292675574
 21
341.2118986672067
 31
0.0
  0
LINE
  5
215
330
20F
100
AcDbEntity
  8
Системный слой
  6
K5LT_THIN
 62
     7
370
    18
100
AcDbLine
 10
855.7859292675574
 20
341.2118986672067
 30
0.0
 11
850.4130002455762
 21
336.7250697508392
 31
0.0
  0
HATCH
  5
216
330
20F
100
AcDbEntity
  8
Системный слой
 62
     7
100
AcDbHatch
 10
0.0
 20
0.0
 30
0.0
210
0.0
220
0.0
230
1.0
  2
SOLID
 70
     1
 71
     0
 91
        1
 92
        1
 93
        4
 72
     1
 10
852.3700529918842
 20
337.5017640636312
 11
855.7859292675574
 21
341.2118986672067
 72
     1
 10
855.7859292675574
 20
341.2118986672067
 11
851.5261926546859
 21
338.5122776759715
 72
     1
 10
851.5261926546859
 20
338.5122776759715
 11
852.3319034677123
 21
338.3275086495419
 72
     1
 10
852.3319034677123
 20
338.3275086495419
 11
852.3700529918842
 21
337.5017640636312
 97
        0
 75
     0
 76
     1
 98
        0
  0
LINE
  5
217
330
20F
100
AcDbEntity
  8
Системный слой
  6
K5LT_THIN
 62
     7
370
    18
100
AcDbLine
 10
862.3102002228203
 20
346.6601909227958
 30
0.0
 11
866.5699368356917
 21
349.3598119140311
 31
0.0
  0
LINE
  5
218
330
20F
100
AcDbEntity
  8
Системный слой
  6
K5LT_THIN
 62
     7
370
    18
100
AcDbLine
 10
866.5699368356917
 20
349.3598119140311
 30
0.0
 11
865.7642260226654
 21
349.5445809404607
 31
0.0
  0
LINE
  5
219
330
20F
100
AcDbEntity
  8
Системный слой
  6
K5LT_THIN
 62
     7
370
    18
100
AcDbLine
 10
865.7642260226654
 20
349.5445809404607
 30
0.0
 11
865.7260764984935
 21
350.3703255263713
 31
0.0
  0
LINE
  5
21A
330
20F
100
AcDbEntity
  8
Системный слой
  6
K5LT_THIN
 62
     7
370
    18
100
AcDbLine
 10
865.7260764984935
 20
350.3703255263713
 30
0.0
 11
862.3102002228203
 21
346.6601909227958
 31
0.0
  0
LINE
  5
21B
330
20F
100
AcDbEntity
  8
Системный слой
  6
K5LT_THIN
 62
     7
370
    18
100
AcDbLine
 10
862.3102002228203
 20
346.6601909227958
 30
0.0
 11
867.6831292448015
 21
351.1470198391634
 31
0.0
  0
HATCH
  5
21C
330
20F
100
AcDbEntity
  8
Системный слой
 62
     7
100
AcDbHatch
 10
0.0
 20
0.0
 30
0.0
210
0.0
220
0.0
230
1.0
  2
SOLID
 70
     1
 71
     0
 91
        1
 92
        1
 93
        4
 72
     1
 10
866.5699368356917
 20
349.3598119140311
 11
865.7642260226654
 21
349.5445809404607
 72
     1
 10
865.7642260226654
 20
349.5445809404607
 11
865.7260764984935
 21
350.3703255263713
 72
     1
 10
865.7260764984935
 20
350.3703255263713
 11
862.3102002228203
 21
346.6601909227958
 72
     1
 10
862.3102002228203
 20
346.6601909227958
 11
866.5699368356917
 21
349.3598119140311
 97
        0
 75
     0
 76
     1
 98
        0
  0
LINE
  5
21D
330
20F
100
AcDbEntity
  8
Системный слой
  6
K5LT_THIN
 62
     7
370
    18
100
AcDbLine
 10
855.7859292675574
 20
341.2118986672067
 30
0.0
 11
862.3102002228203
 21
346.6601909227958
 31
0.0
  0
LINE
  5
21E
330
20F
100
AcDbEntity
  8
Системный слой
  6
K5LT_THIN
 62
     7
370
    18
100
AcDbLine
 10
862.3102002228203
 20
346.6601909227958
 30
0.0
 11
906.1494113653469
 21
383.2694666865949
 31
0.0
  0
MTEXT
  5
21F
330
20F
100
AcDbEntity
  8
Системный слой
 62
     7
100
AcDbMText
 10
890.2228335469125
 20
379.8546943804848
 30
0.0
 40
0.0
 41
0.0
 46
0.0
 71
     1
 72
     1
  1
\H3.5;\W0.965;\Q15;\Q15;\H5.00;∅
  7
KTEXTSTYLE
 11
0.7675612888544625
 21
0.6409755594810744
 31
0.0
 73
     1
 44
1.0
  0
MTEXT
  5
220
330
20F
100
AcDbEntity
  8
Системный слой
 62
     7
100
AcDbMText
 10
892.9418575730249
 20
382.1252986588492
 30
0.0
 40
0.0
 41
0.0
 46
0.0
 71
     1
 72
     1
  1
\H3.5;\W0.965;\Q15;\Q15;\H5.00;8,5
  7
KTEXTSTYLE
 11
0.7675612888544625
 21
0.6409755594810744
 31
0.0
 73
     1
 44
1.0
  0
ENDBLK
  5
222
330
20F
100
AcDbEntity
  8
0
100
AcDbBlockEnd
  0
BLOCK
  5
234
330
224
100
AcDbEntity
  8
0
100
AcDbBlockBegin
  2
D9
 70
     0
 10
0.0
 20
0.0
 30
0.0
  3
D9
  1

  0
WIPEOUT
  5
225
330
224
100
AcDbEntity
  8
0
160
               152
310
98000000040000000C0000000E000000120000000C00000016000000000000C20C00000014000000010000006C0000000700000004000000318C45DA0E358D40549F5348C23D7540000000000000000090BCA6A68E1D8D40168406A5F1A4754000000000000000002C08AE271C838D403BE6A5C67501764000000000000000
310
00CED74C5B9C9A8D407901F369469A75400000000000000000
100
AcDbWipeout
 90
        0
 10
931.6946537996573
 20
339.8599322573185
 30
0.0
 11
15.63169221659314
 21
0.0
 31
0.0
 12
0.0
 22
15.63169221659314
 32
0.0
 13
1.0
 23
1.0
340
0
 70
     7
280
     1
281
    50
282
    50
283
     0
360
0
 71
     2
 91
        5
 14
-0.3120741876623896
 24
0.5000000000000036
 14
-0.5
 24
0.0874366687570216
 14
0.3120741876623825
 24
-0.2824694519228537
 14
0.5
 24
0.1300938793201283
 14
-0.3120741876623896
 24
0.5000000000000036
290
     0
  0
LINE
  5
226
330
224
100
AcDbEntity
  8
Системный слой
  6
K5LT_THIN
 62
     7
370
    18
100
AcDbLine
 10
743.120617979568
 20
251.5699873364266
 30
0.0
 11
747.3979307279774
 21
254.2416731636993
 31
0.0
  0
LINE
  5
227
330
224
100
AcDbEntity
  8
Системный слой
  6
K5LT_THIN
 62
     7
370
    18
100
AcDbLine
 10
747.3979307279774
 20
254.2416731636993
 30
0.0
 11
747.2157812286546
 21
253.4353661085077
 31
0.0
  0
LINE
  5
228
330
224
100
AcDbEntity
  8
Системный слой
  6
K5LT_THIN
 62
     7
370
    18
100
AcDbLine
 10
747.2157812286546
 20
253.4353661085077
 30
0.0
 11
747.9436680069066
 21
253.0435876693341
 31
0.0
  0
LINE
  5
229
330
224
100
AcDbEntity
  8
Системный слой
  6
K5LT_THIN
 62
     7
370
    18
100
AcDbLine
 10
747.9436680069066
 20
253.0435876693341
 30
0.0
 11
743.120617979568
 21
251.5699873364266
 31
0.0
  0
HATCH
  5
22A
330
224
100
AcDbEntity
  8
Системный слой
 62
     7
100
AcDbHatch
 10
0.0
 20
0.0
 30
0.0
210
0.0
220
0.0
230
1.0
  2
SOLID
 70
     1
 71
     0
 91
        1
 92
        1
 93
        4
 72
     1
 10
747.9436680069066
 20
253.0435876693341
 11
747.2157812286546
 21
253.4353661085077
 72
     1
 10
747.2157812286546
 20
253.4353661085077
 11
747.3979307279774
 21
254.2416731636993
 72
     1
 10
747.3979307279774
 20
254.2416731636993
 11
743.120617979568
 21
251.5699873364266
 72
     1
 10
743.120617979568
 20
251.5699873364266
 11
747.9436680069066
 21
253.0435876693341
 97
        0
 75
     0
 76
     1
 98
        0
  0
LINE
  5
22B
330
224
100
AcDbEntity
  8
Системный слой
  6
K5LT_THIN
 62
     7
370
    18
100
AcDbLine
 10
829.6650679770097
 20
290.9916587197759
 30
0.0
 11
825.3877552286003
 21
288.3199728925032
 31
0.0
  0
LINE
  5
22C
330
224
100
AcDbEntity
  8
Системный слой
  6
K5LT_THIN
 62
     7
370
    18
100
AcDbLine
 10
825.3877552286003
 20
288.3199728925032
 30
0.0
 11
825.5699047279231
 21
289.1262799476949
 31
0.0
  0
LINE
  5
22D
330
224
100
AcDbEntity
  8
Системный слой
  6
K5LT_THIN
 62
     7
370
    18
100
AcDbLine
 10
825.5699047279231
 20
289.1262799476949
 30
0.0
 11
824.8420179496711
 21
289.5180583868685
 31
0.0
  0
LINE
  5
22E
330
224
100
AcDbEntity
  8
Системный слой
  6
K5LT_THIN
 62
     7
370
    18
100
AcDbLine
 10
824.8420179496711
 20
289.5180583868685
 30
0.0
 11
829.6650679770097
 21
290.9916587197759
 31
0.0
  0
HATCH
  5
22F
330
224
100
AcDbEntity
  8
Системный слой
 62
     7
100
AcDbHatch
 10
0.0
 20
0.0
 30
0.0
210
0.0
220
0.0
230
1.0
  2
SOLID
 70
     1
 71
     0
 91
        1
 92
        1
 93
        4
 72
     1
 10
829.6650679770097
 20
290.9916587197759
 11
824.8420179496711
 21
289.5180583868685
 72
     1
 10
824.8420179496711
 20
289.5180583868685
 11
825.5699047279231
 21
289.1262799476949
 72
     1
 10
825.5699047279231
 20
289.1262799476949
 11
825.3877552286003
 21
288.3199728925032
 72
     1
 10
825.3877552286003
 20
288.3199728925032
 11
829.6650679770097
 21
290.9916587197759
 97
        0
 75
     0
 76
     1
 98
        0
  0
LINE
  5
230
330
224
100
AcDbEntity
  8
Системный слой
  6
K5LT_THIN
 62
     7
370
    18
100
AcDbLine
 10
743.120617979568
 20
251.5699873364266
 30
0.0
 11
829.6650679770097
 21
290.9916587197759
 31
0.0
  0
LINE
  5
231
330
224
100
AcDbEntity
  8
Системный слой
  6
K5LT_THIN
 62
     7
370
    18
100
AcDbLine
 10
829.6650679770097
 20
290.9916587197759
 30
0.0
 11
950.0732866634903
 21
345.8385406290516
 31
0.0
  0
MTEXT
  5
232
330
224
100
AcDbEntity
  8
Системный слой
 62
     7
100
AcDbMText
 10
931.8849638629191
 20
345.8911976695879
 30
0.0
 40
0.0
 41
0.0
 46
0.0
 71
     1
 72
     1
  1
\H3.5;\W0.965;\Q15;\Q15;\H5.00;∅
  7
KTEXTSTYLE
 11
0.9100362775747929
 21
0.4145286160180193
 31
0.0
 73
     1
 44
1.0
  0
MTEXT
  5
233
330
224
100
AcDbEntity
  8
Системный слой
 62
     7
100
AcDbMText
 10
935.1086940578754
 20
347.3596318947508
 30
0.0
 40
0.0
 41
0.0
 46
0.0
 71
     1
 72
     1
  1
\H3.5;\W0.965;\Q15;\Q15;\H5.00;95,1
  7
KTEXTSTYLE
 11
0.9100362775747929
 21
0.4145286160180193
 31
0.0
 73
     1
 44
1.0
  0
ENDBLK
  5
235
330
224
100
AcDbEntity
  8
0
100
AcDbBlockEnd
  0
BLOCK
  5
247
330
237
100
AcDbEntity
  8
0
100
AcDbBlockBegin
  2
D10
 70
     0
 10
0.0
 20
0.0
 30
0.0
  3
D10
  1

  0
WIPEOUT
  5
238
330
237
100
AcDbEntity
  8
0
160
               152
310
98000000040000000C0000000E000000120000000C00000016000000000000C20C00000014000000010000006C00000007000000040000005B4F4882FB598B40995D25E82BAD78400000000000000000AA9E84CB2A2C8B404B7A68AAF4EF784000000000000000005F833E896F7F8B408F435E7C73D4794000000000000000
310
000F34024040AD8B40DD261BBAAA9179400000000000000000
100
AcDbWipeout
 90
        0
 10
869.520895992367
 20
394.8232194385141
 30
0.0
 11
18.45497534013646
 21
0.0
 31
0.0
 12
0.0
 22
18.45497534013646
 32
0.0
 13
1.0
 23
1.0
340
0
 70
     7
280
     1
281
    50
282
    50
283
     0
360
0
 71
     2
 91
        5
 14
-0.189681996865005
 24
0.4999999999999964
 14
-0.5
 24
0.273827203185057
 14
0.0639977733412778
 24
-0.5000000000000036
 14
0.3743157764762728
 24
-0.2738272031850641
 14
-0.189681996865005
 24
0.4999999999999964
290
     0
  0
LINE
  5
239
330
237
100
AcDbEntity
  8
Системный слой
  6
K5LT_THIN
 62
     7
370
    18
100
AcDbLine
 10
725.8730054950091
 20
188.2452175868675
 30
0.0
 11
728.2860464966466
 21
192.6735968199247
 31
0.0
  0
LINE
  5
23A
330
237
100
AcDbEntity
  8
Системный слой
  6
K5LT_THIN
 62
     7
370
    18
100
AcDbLine
 10
728.2860464966466
 20
192.6735968199247
 30
0.0
 11
728.5235093263943
 21
191.8818134456085
 31
0.0
  0
LINE
  5
23B
330
237
100
AcDbEntity
  8
Системный слой
  6
K5LT_THIN
 62
     7
370
    18
100
AcDbLine
 10
728.5235093263943
 20
191.8818134456085
 30
0.0
 11
729.3499730075611
 21
191.8981624843459
 31
0.0
  0
LINE
  5
23C
330
237
100
AcDbEntity
  8
Системный слой
  6
K5LT_THIN
 62
     7
370
    18
100
AcDbLine
 10
729.3499730075611
 20
191.8981624843459
 30
0.0
 11
725.8730054950091
 21
188.2452175868675
 31
0.0
  0
HATCH
  5
23D
330
237
100
AcDbEntity
  8
Системный слой
 62
     7
100
AcDbHatch
 10
0.0
 20
0.0
 30
0.0
210
0.0
220
0.0
230
1.0
  2
SOLID
 70
     1
 71
     0
 91
        1
 92
        1
 93
        4
 72
     1
 10
725.8730054950091
 20
188.2452175868675
 11
729.3499730075611
 21
191.8981624843459
 72
     1
 10
729.3499730075611
 20
191.8981624843459
 11
728.5235093263943
 21
191.8818134456085
 72
     1
 10
728.5235093263943
 20
191.8818134456085
 11
728.2860464966466
 21
192.6735968199247
 72
     1
 10
728.2860464966466
 20
192.6735968199247
 11
725.8730054950091
 21
188.2452175868675
 97
        0
 75
     0
 76
     1
 98
        0
  0
LINE
  5
23E
330
237
100
AcDbEntity
  8
Системный слой
  6
K5LT_THIN
 62
     7
370
    18
100
AcDbLine
 10
846.9126804615686
 20
354.3164284693351
 30
0.0
 11
844.4996394599311
 21
349.8880492362779
 31
0.0
  0
LINE
  5
23F
330
237
100
AcDbEntity
  8
Системный слой
  6
K5LT_THIN
 62
     7
370
    18
100
AcDbLine
 10
844.4996394599311
 20
349.8880492362779
 30
0.0
 11
844.2621766301834
 21
350.6798326105941
 31
0.0
  0
LINE
  5
240
330
237
100
AcDbEntity
  8
Системный слой
  6
K5LT_THIN
 62
     7
370
    18
100
AcDbLine
 10
844.2621766301834
 20
350.6798326105941
 30
0.0
 11
843.4357129490166
 21
350.6634835718567
 31
0.0
  0
LINE
  5
241
330
237
100
AcDbEntity
  8
Системный слой
  6
K5LT_THIN
 62
     7
370
    18
100
AcDbLine
 10
843.4357129490166
 20
350.6634835718567
 30
0.0
 11
846.9126804615686
 21
354.3164284693351
 31
0.0
  0
HATCH
  5
242
330
237
100
AcDbEntity
  8
Системный слой
 62
     7
100
AcDbHatch
 10
0.0
 20
0.0
 30
0.0
210
0.0
220
0.0
230
1.0
  2
SOLID
 70
     1
 71
     0
 91
        1
 92
        1
 93
        4
 72
     1
 10
844.4996394599311
 20
349.8880492362779
 11
846.9126804615686
 21
354.3164284693351
 72
     1
 10
846.9126804615686
 20
354.3164284693351
 11
843.4357129490166
 21
350.6634835718567
 72
     1
 10
843.4357129490166
 20
350.6634835718567
 11
844.2621766301834
 21
350.6798326105941
 72
     1
 10
844.2621766301834
 20
350.6798326105941
 11
844.4996394599311
 21
349.8880492362779
 97
        0
 75
     0
 76
     1
 98
        0
  0
LINE
  5
243
330
237
100
AcDbEntity
  8
Системный слой
  6
K5LT_THIN
 62
     7
370
    18
100
AcDbLine
 10
725.8730054950091
 20
188.2452175868675
 30
0.0
 11
846.9126804615686
 21
354.3164284693351
 31
0.0
  0
LINE
  5
244
330
237
100
AcDbEntity
  8
Системный слой
  6
K5LT_THIN
 62
     7
370
    18
100
AcDbLine
 10
846.9126804615686
 20
354.3164284693351
 30
0.0
 11
888.0438712068692
 21
410.7500454135065
 31
0.0
  0
MTEXT
  5
245
330
237
100
AcDbEntity
  8
Системный слой
 62
     7
100
AcDbMText
 10
869.891909535725
 20
398.7268225700587
 30
0.0
 40
0.0
 41
0.0
 46
0.0
 71
     1
 72
     1
  1
\H3.5;\W0.965;\Q15;\Q15;\H5.00;∅
  7
KTEXTSTYLE
 11
0.589000851418927
 21
0.8081324130535658
 31
0.0
 73
     1
 44
1.0
  0
MTEXT
  5
246
330
237
100
AcDbEntity
  8
Системный слой
 62
     7
100
AcDbMText
 10
871.9783975981946
 20
401.5895665349767
 30
0.0
 40
0.0
 41
0.0
 46
0.0
 71
     1
 72
     1
  1
\H3.5;\W0.965;\Q15;\Q15;\H5.00;205,5
  7
KTEXTSTYLE
 11
0.589000851418927
 21
0.8081324130535658
 31
0.0
 73
     1
 44
1.0
  0
ENDBLK
  5
248
330
237
100
AcDbEntity
  8
0
100
AcDbBlockEnd
  0
BLOCK
  5
25A
330
24A
100
AcDbEntity
  8
0
100
AcDbBlockBegin
  2
D11
 70
     0
 10
0.0
 20
0.0
 30
0.0
  3
D11
  1

  0
WIPEOUT
  5
24B
330
24A
100
AcDbEntity
  8
0
160
               152
310
98000000040000000C0000000E000000120000000C00000016000000000000C20C00000014000000010000006C0000000700000004000000E8EF512E3518824087FD6A463EF979400000000000000000E8EF512E35188240BB309E6ED9667A400000000000000000FC9D99734C6F8240BB309E6ED9667A4000000000000000
310
00FC9D99734C6F824087FD6A463EF979400000000000000000
100
AcDbWipeout
 90
        0
 10
579.0259672547662
 20
415.5777038745222
 30
0.0
 11
10.88636260986323
 21
0.0
 31
0.0
 12
0.0
 22
10.88636260986323
 32
0.0
 13
1.0
 23
1.0
340
0
 70
     7
280
     1
281
    50
282
    50
283
     0
360
0
 71
     2
 91
        5
 14
-0.4999999999999929
 24
0.4999999999999929
 14
-0.4999999999999929
 24
-0.1292625351626668
 14
0.5000000000000071
 24
-0.1292625351626668
 14
0.5000000000000071
 24
0.4999999999999929
 14
-0.4999999999999929
 24
0.4999999999999929
290
     0
  0
LINE
  5
24C
330
24A
100
AcDbEntity
  8
Системный слой
  6
K5LT_THIN
 62
     7
370
    18
100
AcDbLine
 10
592.0959477807367
 20
414.6177037600813
 30
0.0
 11
587.0959477807367
 21
413.9594412688551
 31
0.0
  0
LINE
  5
24D
330
24A
100
AcDbEntity
  8
Системный слой
  6
K5LT_THIN
 62
     7
370
    18
100
AcDbLine
 10
587.0959477807367
 20
413.9594412688551
 30
0.0
 11
587.5959477807367
 21
414.6177037600813
 31
0.0
  0
LINE
  5
24E
330
24A
100
AcDbEntity
  8
Системный слой
  6
K5LT_THIN
 62
     7
370
    18
100
AcDbLine
 10
587.5959477807367
 20
414.6177037600813
 30
0.0
 11
587.0959477807367
 21
415.2759662513075
 31
0.0
  0
LINE
  5
24F
330
24A
100
AcDbEntity
  8
Системный слой
  6
K5LT_THIN
 62
     7
370
    18
100
AcDbLine
 10
587.0959477807367
 20
415.2759662513075
 30
0.0
 11
592.0959477807367
 21
414.6177037600813
 31
0.0
  0
HATCH
  5
250
330
24A
100
AcDbEntity
  8
Системный слой
 62
     7
100
AcDbHatch
 10
0.0
 20
0.0
 30
0.0
210
0.0
220
0.0
230
1.0
  2
SOLID
 70
     1
 71
     0
 91
        1
 92
        1
 93
        4
 72
     1
 10
592.0959477807367
 20
414.6177037600813
 11
587.0959477807367
 21
415.2759662513075
 72
     1
 10
587.0959477807367
 20
415.2759662513075
 11
587.5959477807367
 21
414.6177037600813
 72
     1
 10
587.5959477807367
 20
414.6177037600813
 11
587.0959477807367
 21
413.9594412688551
 72
     1
 10
587.0959477807367
 20
413.9594412688551
 11
592.0959477807367
 21
414.6177037600813
 97
        0
 75
     0
 76
     1
 98
        0
  0
LINE
  5
251
330
24A
100
AcDbEntity
  8
Системный слой
  6
K5LT_THIN
 62
     7
370
    18
100
AcDbLine
 10
577.2959477807367
 20
414.6177037600813
 30
0.0
 11
582.2959477807367
 21
415.2759662513075
 31
0.0
  0
LINE
  5
252
330
24A
100
AcDbEntity
  8
Системный слой
  6
K5LT_THIN
 62
     7
370
    18
100
AcDbLine
 10
582.2959477807367
 20
415.2759662513075
 30
0.0
 11
581.7959477807367
 21
414.6177037600813
 31
0.0
  0
LINE
  5
253
330
24A
100
AcDbEntity
  8
Системный слой
  6
K5LT_THIN
 62
     7
370
    18
100
AcDbLine
 10
581.7959477807367
 20
414.6177037600813
 30
0.0
 11
582.2959477807367
 21
413.9594412688551
 31
0.0
  0
LINE
  5
254
330
24A
100
AcDbEntity
  8
Системный слой
  6
K5LT_THIN
 62
     7
370
    18
100
AcDbLine
 10
582.2959477807367
 20
413.9594412688551
 30
0.0
 11
577.2959477807367
 21
414.6177037600813
 31
0.0
  0
HATCH
  5
255
330
24A
100
AcDbEntity
  8
Системный слой
 62
     7
100
AcDbHatch
 10
0.0
 20
0.0
 30
0.0
210
0.0
220
0.0
230
1.0
  2
SOLID
 70
     1
 71
     0
 91
        1
 92
        1
 93
        4
 72
     1
 10
582.2959477807367
 20
413.9594412688551
 11
581.7959477807367
 21
414.6177037600813
 72
     1
 10
581.7959477807367
 20
414.6177037600813
 11
582.2959477807367
 21
415.2759662513075
 72
     1
 10
582.2959477807367
 20
415.2759662513075
 11
577.2959477807367
 21
414.6177037600813
 72
     1
 10
577.2959477807367
 20
414.6177037600813
 11
582.2959477807367
 21
413.9594412688551
 97
        0
 75
     0
 76
     1
 98
        0
  0
LINE
  5
256
330
24A
100
AcDbEntity
  8
Системный слой
  6
K5LT_THIN
 62
     7
370
    18
100
AcDbLine
 10
592.0959477807367
 20
414.6177037600813
 30
0.0
 11
577.2959477807367
 21
414.6177037600813
 31
0.0
  0
LINE
  5
257
330
24A
100
AcDbEntity
  8
Системный слой
  6
K5LT_THIN
 62
     7
370
    18
100
AcDbLine
 10
592.0959477807367
 20
378.2808230281013
 30
0.0
 11
592.0959477807367
 21
416.6177037600813
 31
0.0
  0
LINE
  5
258
330
24A
100
AcDbEntity
  8
Системный слой
  6
K5LT_THIN
 62
     7
370
    18
100
AcDbLine
 10
577.2959477807367
 20
375.9977474673721
 30
0.0
 11
577.2959477807367
 21
416.6177037600813
 31
0.0
  0
MTEXT
  5
259
330
24A
100
AcDbEntity
  8
Системный слой
 62
     7
100
AcDbMText
 10
579.0259672547662
 20
422.1522873286543
 30
0.0
 40
0.0
 41
0.0
 46
0.0
 71
     1
 72
     1
  1
\H3.5;\W0.965;\Q15;\Q15;\H5.00;14,8
  7
KTEXTSTYLE
 73
     1
 44
1.0
  0
ENDBLK
  5
25B
330
24A
100
AcDbEntity
  8
0
100
AcDbBlockEnd
  0
BLOCK
  5
26F
330
25D
100
AcDbEntity
  8
0
100
AcDbBlockBegin
  2
D12
 70
     0
 10
0.0
 20
0.0
 30
0.0
  3
D12
  1

  0
WIPEOUT
  5
25E
330
25D
100
AcDbEntity
  8
0
160
               152
310
98000000040000000C0000000E000000120000000C00000016000000000000C20C00000014000000010000006C0000000700000004000000B4BCDE4F669B8140FE444D574B8277400000000000000000B4BCDE4F669B81403178807FE6EF77400000000000000000F0C6B56387DF81403178807FE6EF774000000000000000
310
00F0C6B56387DF8140FE444D574B8277400000000000000000
100
AcDbWipeout
 90
        0
 10
563.4249570275629
 20
376.1433938043918
 30
0.0
 11
8.516151123046825
 21
0.0
 31
0.0
 12
0.0
 22
8.516151123046825
 32
0.0
 13
1.0
 23
1.0
340
0
 70
     7
280
     1
281
    50
282
    50
283
     0
360
0
 71
     2
 91
        5
 14
-0.5
 24
0.4999999999999929
 14
-0.5
 24
-0.3043986110161612
 14
0.5
 24
-0.3043986110161612
 14
0.5
 24
0.4999999999999929
 14
-0.5
 24
0.4999999999999929
290
     0
  0
LINE
  5
25F
330
25D
100
AcDbEntity
  8
Системный слой
  6
K5LT_THIN
 62
     7
370
    18
100
AcDbLine
 10
584.7959477807367
 20
375.1833936899509
 30
0.0
 11
589.7959477807367
 21
374.5251311987247
 31
0.0
  0
LINE
  5
260
330
25D
100
AcDbEntity
  8
Системный слой
  6
K5LT_THIN
 62
     7
370
    18
100
AcDbLine
 10
589.7959477807367
 20
374.5251311987247
 30
0.0
 11
589.2959477807367
 21
375.1833936899509
 31
0.0
  0
LINE
  5
261
330
25D
100
AcDbEntity
  8
Системный слой
  6
K5LT_THIN
 62
     7
370
    18
100
AcDbLine
 10
589.2959477807367
 20
375.1833936899509
 30
0.0
 11
589.7959477807367
 21
375.8416561811771
 31
0.0
  0
LINE
  5
262
330
25D
100
AcDbEntity
  8
Системный слой
  6
K5LT_THIN
 62
     7
370
    18
100
AcDbLine
 10
589.7959477807367
 20
375.8416561811771
 30
0.0
 11
584.7959477807367
 21
375.1833936899509
 31
0.0
  0
LINE
  5
263
330
25D
100
AcDbEntity
  8
Системный слой
  6
K5LT_THIN
 62
     7
370
    18
100
AcDbLine
 10
584.7959477807367
 20
375.1833936899509
 30
0.0
 11
591.7959477807367
 21
375.1833936899509
 31
0.0
  0
HATCH
  5
264
330
25D
100
AcDbEntity
  8
Системный слой
 62
     7
100
AcDbHatch
 10
0.0
 20
0.0
 30
0.0
210
0.0
220
0.0
230
1.0
  2
SOLID
 70
     1
 71
     0
 91
        1
 92
        1
 93
        4
 72
     1
 10
589.2959477807367
 20
375.1833936899509
 11
589.7959477807367
 21
375.8416561811771
 72
     1
 10
589.7959477807367
 20
375.8416561811771
 11
584.7959477807367
 21
375.1833936899509
 72
     1
 10
584.7959477807367
 20
375.1833936899509
 11
589.7959477807367
 21
374.5251311987247
 72
     1
 10
589.7959477807367
 20
374.5251311987247
 11
589.2959477807367
 21
375.1833936899509
 97
        0
 75
     0
 76
     1
 98
        0
  0
LINE
  5
265
330
25D
100
AcDbEntity
  8
Системный слой
  6
K5LT_THIN
 62
     7
370
    18
100
AcDbLine
 10
577.2959477807367
 20
375.1833936899509
 30
0.0
 11
572.2959477807367
 21
375.8416561811771
 31
0.0
  0
LINE
  5
266
330
25D
100
AcDbEntity
  8
Системный слой
  6
K5LT_THIN
 62
     7
370
    18
100
AcDbLine
 10
572.2959477807367
 20
375.8416561811771
 30
0.0
 11
572.7959477807367
 21
375.1833936899509
 31
0.0
  0
LINE
  5
267
330
25D
100
AcDbEntity
  8
Системный слой
  6
K5LT_THIN
 62
     7
370
    18
100
AcDbLine
 10
572.7959477807367
 20
375.1833936899509
 30
0.0
 11
572.2959477807367
 21
374.5251311987247
 31
0.0
  0
LINE
  5
268
330
25D
100
AcDbEntity
  8
Системный слой
  6
K5LT_THIN
 62
     7
370
    18
100
AcDbLine
 10
572.2959477807367
 20
374.5251311987247
 30
0.0
 11
577.2959477807367
 21
375.1833936899509
 31
0.0
  0
LINE
  5
269
330
25D
100
AcDbEntity
  8
Системный слой
  6
K5LT_THIN
 62
     7
370
    18
100
AcDbLine
 10
577.2959477807367
 20
375.1833936899509
 30
0.0
 11
570.2959477807367
 21
375.1833936899509
 31
0.0
  0
HATCH
  5
26A
330
25D
100
AcDbEntity
  8
Системный слой
 62
     7
100
AcDbHatch
 10
0.0
 20
0.0
 30
0.0
210
0.0
220
0.0
230
1.0
  2
SOLID
 70
     1
 71
     0
 91
        1
 92
        1
 93
        4
 72
     1
 10
577.2959477807367
 20
375.1833936899509
 11
572.2959477807367
 21
375.8416561811771
 72
     1
 10
572.2959477807367
 20
375.8416561811771
 11
572.7959477807367
 21
375.1833936899509
 72
     1
 10
572.7959477807367
 20
375.1833936899509
 11
572.2959477807367
 21
374.5251311987247
 72
     1
 10
572.2959477807367
 20
374.5251311987247
 11
577.2959477807367
 21
375.1833936899509
 97
        0
 75
     0
 76
     1
 98
        0
  0
LINE
  5
26B
330
25D
100
AcDbEntity
  8
Системный слой
  6
K5LT_THIN
 62
     7
370
    18
100
AcDbLine
 10
584.7959477807367
 20
375.1833936899509
 30
0.0
 11
577.2959477807367
 21
375.1833936899509
 31
0.0
  0
LINE
  5
26C
330
25D
100
AcDbEntity
  8
Системный слой
  6
K5LT_THIN
 62
     7
370
    18
100
AcDbLine
 10
577.2959477807367
 20
375.1833936899509
 30
0.0
 11
561.4249570275629
 21
375.1833936899509
 31
0.0
  0
LINE
  5
26D
330
25D
100
AcDbEntity
  8
Системный слой
  6
K5LT_THIN
 62
     7
370
    18
100
AcDbLine
 10
584.7959477807367
 20
378.2808230281013
 30
0.0
 11
584.7959477807367
 21
373.1833936899509
 31
0.0
  0
MTEXT
  5
26E
330
25D
100
AcDbEntity
  8
Системный слой
 62
     7
100
AcDbMText
 10
563.4249570275629
 20
382.7179772585239
 30
0.0
 40
0.0
 41
0.0
 46
0.0
 71
     1
 72
     1
  1
\H3.5;\W0.965;\Q15;\Q15;\H5.00;7,5
  7
KTEXTSTYLE
 73
     1
 44
1.0
  0
ENDBLK
  5
270
330
25D
100
AcDbEntity
  8
0
100
AcDbBlockEnd
  0
BLOCK
  5
285
330
272
100
AcDbEntity
  8
0
100
AcDbBlockBegin
  2
D13
 70
     0
 10
0.0
 20
0.0
 30
0.0
  3
D13
  1

  0
WIPEOUT
  5
273
330
272
100
AcDbEntity
  8
0
160
               152
310
98000000040000000C0000000E000000120000000C00000016000000000000C20C00000014000000010000006C000000070000000400000048BDDE0E95988140891B5E69DA537840000000000000000048BDDE0E95988140BC4E919175C1784000000000000000007CF0118A6ADF8140BC4E919175C1784000000000000000
310
007CF0118A6ADF8140891B5E69DA5378400000000000000000
100
AcDbWipeout
 90
        0
 10
563.0727822686686
 20
389.2408231426311
 30
0.0
 11
8.85423889160154
 21
0.0
 31
0.0
 12
0.0
 22
8.85423889160154
 32
0.0
 13
1.0
 23
1.0
340
0
 70
     7
280
     1
281
    50
282
    50
283
     0
360
0
 71
     2
 91
        5
 14
-0.5000000000000071
 24
0.4999999999999929
 14
-0.5000000000000071
 24
-0.2736836806018772
 14
0.5
 24
-0.2736836806018772
 14
0.5
 24
0.4999999999999929
 14
-0.5000000000000071
 24
0.4999999999999929
290
     0
  0
LINE
  5
274
330
272
100
AcDbEntity
  8
Системный слой
  6
K5LT_THIN
 62
     7
370
    18
100
AcDbLine
 10
581.6959477807367
 20
388.2808230281902
 30
0.0
 11
586.6959477807367
 21
387.622560536964
 31
0.0
  0
LINE
  5
275
330
272
100
AcDbEntity
  8
Системный слой
  6
K5LT_THIN
 62
     7
370
    18
100
AcDbLine
 10
586.6959477807367
 20
387.622560536964
 30
0.0
 11
586.1959477807367
 21
388.2808230281902
 31
0.0
  0
LINE
  5
276
330
272
100
AcDbEntity
  8
Системный слой
  6
K5LT_THIN
 62
     7
370
    18
100
AcDbLine
 10
586.1959477807367
 20
388.2808230281902
 30
0.0
 11
586.6959477807367
 21
388.9390855194164
 31
0.0
  0
LINE
  5
277
330
272
100
AcDbEntity
  8
Системный слой
  6
K5LT_THIN
 62
     7
370
    18
100
AcDbLine
 10
586.6959477807367
 20
388.9390855194164
 30
0.0
 11
581.6959477807367
 21
388.2808230281902
 31
0.0
  0
LINE
  5
278
330
272
100
AcDbEntity
  8
Системный слой
  6
K5LT_THIN
 62
     7
370
    18
100
AcDbLine
 10
581.6959477807367
 20
388.2808230281902
 30
0.0
 11
588.6959477807367
 21
388.2808230281902
 31
0.0
  0
HATCH
  5
279
330
272
100
AcDbEntity
  8
Системный слой
 62
     7
100
AcDbHatch
 10
0.0
 20
0.0
 30
0.0
210
0.0
220
0.0
230
1.0
  2
SOLID
 70
     1
 71
     0
 91
        1
 92
        1
 93
        4
 72
     1
 10
586.1959477807367
 20
388.2808230281902
 11
586.6959477807367
 21
388.9390855194164
 72
     1
 10
586.6959477807367
 20
388.9390855194164
 11
581.6959477807367
 21
388.2808230281902
 72
     1
 10
581.6959477807367
 20
388.2808230281902
 11
586.6959477807367
 21
387.622560536964
 72
     1
 10
586.6959477807367
 20
387.622560536964
 11
586.1959477807367
 21
388.2808230281902
 97
        0
 75
     0
 76
     1
 98
        0
  0
LINE
  5
27A
330
272
100
AcDbEntity
  8
Системный слой
  6
K5LT_THIN
 62
     7
370
    18
100
AcDbLine
 10
577.2959477807535
 20
388.2808230281902
 30
0.0
 11
572.2959477807535
 21
388.9390855194164
 31
0.0
  0
LINE
  5
27B
330
272
100
AcDbEntity
  8
Системный слой
  6
K5LT_THIN
 62
     7
370
    18
100
AcDbLine
 10
572.2959477807535
 20
388.9390855194164
 30
0.0
 11
572.7959477807535
 21
388.2808230281902
 31
0.0
  0
LINE
  5
27C
330
272
100
AcDbEntity
  8
Системный слой
  6
K5LT_THIN
 62
     7
370
    18
100
AcDbLine
 10
572.7959477807535
 20
388.2808230281902
 30
0.0
 11
572.2959477807535
 21
387.622560536964
 31
0.0
  0
LINE
  5
27D
330
272
100
AcDbEntity
  8
Системный слой
  6
K5LT_THIN
 62
     7
370
    18
100
AcDbLine
 10
572.2959477807535
 20
387.622560536964
 30
0.0
 11
577.2959477807535
 21
388.2808230281902
 31
0.0
  0
LINE
  5
27E
330
272
100
AcDbEntity
  8
Системный слой
  6
K5LT_THIN
 62
     7
370
    18
100
AcDbLine
 10
577.2959477807535
 20
388.2808230281902
 30
0.0
 11
570.2959477807535
 21
388.2808230281902
 31
0.0
  0
HATCH
  5
27F
330
272
100
AcDbEntity
  8
Системный слой
 62
     7
100
AcDbHatch
 10
0.0
 20
0.0
 30
0.0
210
0.0
220
0.0
230
1.0
  2
SOLID
 70
     1
 71
     0
 91
        1
 92
        1
 93
        4
 72
     1
 10
577.2959477807535
 20
388.2808230281902
 11
572.2959477807535
 21
388.9390855194164
 72
     1
 10
572.2959477807535
 20
388.9390855194164
 11
572.7959477807535
 21
388.2808230281902
 72
     1
 10
572.7959477807535
 20
388.2808230281902
 11
572.2959477807535
 21
387.622560536964
 72
     1
 10
572.2959477807535
 20
387.622560536964
 11
577.2959477807535
 21
388.2808230281902
 97
        0
 75
     0
 76
     1
 98
        0
  0
LINE
  5
280
330
272
100
AcDbEntity
  8
Системный слой
  6
K5LT_THIN
 62
     7
370
    18
100
AcDbLine
 10
581.6959477807367
 20
388.2808230281902
 30
0.0
 11
577.2959477807535
 21
388.2808230281902
 31
0.0
  0
LINE
  5
281
330
272
100
AcDbEntity
  8
Системный слой
  6
K5LT_THIN
 62
     7
370
    18
100
AcDbLine
 10
577.2959477807535
 20
388.2808230281902
 30
0.0
 11
561.0727822686686
 21
388.2808230281902
 31
0.0
  0
LINE
  5
282
330
272
100
AcDbEntity
  8
Системный слой
  6
K5LT_THIN
 62
     7
370
    18
100
AcDbLine
 10
581.6959477807367
 20
390.0382137331013
 30
0.0
 11
581.6959477807367
 21
386.2808230281902
 31
0.0
  0
LINE
  5
283
330
272
100
AcDbEntity
  8
Системный слой
  6
K5LT_THIN
 62
     7
370
    18
100
AcDbLine
 10
577.2959477807535
 20
387.2998135445439
 30
0.0
 11
577.2959477807535
 21
390.2808230281902
 31
0.0
  0
MTEXT
  5
284
330
272
100
AcDbEntity
  8
Системный слой
 62
     7
100
AcDbMText
 10
563.0727822686686
 20
395.8154065967632
 30
0.0
 40
0.0
 41
0.0
 46
0.0
 71
     1
 72
     1
  1
\H3.5;\W0.965;\Q15;\Q15;\H5.00;4,4
  7
KTEXTSTYLE
 73
     1
 44
1.0
  0
ENDBLK
  5
286
330
272
100
AcDbEntity
  8
0
100
AcDbBlockEnd
  0
BLOCK
  5
294
330
288
100
AcDbEntity
  8
0
100
AcDbBlockBegin
  2
D14
 70
     0
 10
0.0
 20
0.0
 30
0.0
  3
D14
  1

  0
WIPEOUT
  5
289
330
288
100
AcDbEntity
  8
0
160
               152
310
98000000040000000C0000000E000000120000000C00000016000000000000C20C00000014000000010000006C00000007000000040000000BB1C858B0B8824035A91D0C2CEC6140000000000000000056194D8297D082402AE10E256FB162400000000000000000B5CDF909080983409EF502A30244624000000000000000
310
006A6575E020F18240A9BD118ABF7E61400000000000000000
100
AcDbWipeout
 90
        0
 10
599.0861068419483
 20
139.9608812662603
 30
0.0
 11
10.04281843537069
 21
0.0
 31
0.0
 12
0.0
 22
10.04281843537069
 32
0.0
 13
1.0
 23
1.0
340
0
 70
     7
280
     1
281
    50
282
    50
283
     0
360
0
 71
     2
 91
        5
 14
-0.4999999999999929
 24
0.1595083714009942
 14
-0.2024866897889197
 24
-0.4543074258280821
 14
0.5000000000000071
 24
-0.1138157972290745
 14
0.202486689788941
 24
0.5
 14
-0.4999999999999929
 24
0.1595083714009942
290
     0
  0
LINE
  5
28A
330
288
100
AcDbEntity
  8
Системный слой
  6
K5LT_THIN
 62
     7
370
    18
100
AcDbLine
 10
584.4956845787617
 20
149.385455530311
 30
0.0
 11
588.7079178104273
 21
146.6122983567256
 31
0.0
  0
LINE
  5
28B
330
288
100
AcDbEntity
  8
Системный слой
  6
K5LT_THIN
 62
     7
370
    18
100
AcDbLine
 10
588.7079178104273
 20
146.6122983567256
 30
0.0
 11
588.5450923743181
 21
147.4227287267829
 31
0.0
  0
LINE
  5
28C
330
288
100
AcDbEntity
  8
Системный слой
  6
K5LT_THIN
 62
     7
370
    18
100
AcDbLine
 10
588.5450923743181
 20
147.4227287267829
 30
0.0
 11
589.2821353372213
 21
147.796997584945
 31
0.0
  0
LINE
  5
28D
330
288
100
AcDbEntity
  8
Системный слой
  6
K5LT_THIN
 62
     7
370
    18
100
AcDbLine
 10
589.2821353372213
 20
147.796997584945
 30
0.0
 11
584.4956845787617
 21
149.385455530311
 31
0.0
  0
LINE
  5
28E
330
288
100
AcDbEntity
  8
Системный слой
  6
K5LT_THIN
 62
     7
370
    18
100
AcDbLine
 10
584.4956845787617
 20
149.385455530311
 30
0.0
 11
590.7947633718493
 21
146.332324947045
 31
0.0
  0
HATCH
  5
28F
330
288
100
AcDbEntity
  8
Системный слой
 62
     7
100
AcDbHatch
 10
0.0
 20
0.0
 30
0.0
210
0.0
220
0.0
230
1.0
  2
SOLID
 70
     1
 71
     0
 91
        1
 92
        1
 93
        4
 72
     1
 10
588.5450923743181
 20
147.4227287267829
 11
589.2821353372213
 21
147.796997584945
 72
     1
 10
589.2821353372213
 20
147.796997584945
 11
584.4956845787617
 21
149.385455530311
 72
     1
 10
584.4956845787617
 20
149.385455530311
 11
588.7079178104273
 21
146.6122983567256
 72
     1
 10
588.7079178104273
 20
146.6122983567256
 11
588.5450923743181
 21
147.4227287267829
 97
        0
 75
     0
 76
     1
 98
        0
  0
LINE
  5
290
330
288
100
AcDbEntity
  8
Системный слой
  6
K5LT_THIN
 62
     7
370
    18
100
AcDbLine
 10
582.6959477807367
 20
150.2577785541013
 30
0.0
 11
584.4956845787617
 21
149.385455530311
 31
0.0
  0
LINE
  5
291
330
288
100
AcDbEntity
  8
Системный слой
  6
K5LT_THIN
 62
     7
370
    18
100
AcDbLine
 10
584.4956845787617
 20
149.385455530311
 30
0.0
 11
607.8160309124047
 21
138.0822054929036
 31
0.0
  0
MTEXT
  5
292
330
288
100
AcDbEntity
  8
Системный слой
 62
     7
100
AcDbMText
 10
601.9536871013833
 20
149.2966367580878
 30
0.0
 40
0.0
 41
0.0
 46
0.0
 71
     1
 72
     1
  1
\H3.5;\W0.965;\Q15;\Q15;\H5.00;R
  7
KTEXTSTYLE
 11
0.8998683990125167
 21
-0.436161511895135
 31
0.0
 73
     1
 44
1.0
  0
MTEXT
  5
293
330
288
100
AcDbEntity
  8
Системный слой
 62
     7
100
AcDbMText
 10
604.8092579679283
 20
147.9125564771903
 30
0.0
 40
0.0
 41
0.0
 46
0.0
 71
     1
 72
     1
  1
\H3.5;\W0.965;\Q15;\Q15;\H5.00;2
  7
KTEXTSTYLE
 11
0.8998683990125167
 21
-0.436161511895135
 31
0.0
 73
     1
 44
1.0
  0
ENDBLK
  5
295
330
288
100
AcDbEntity
  8
0
100
AcDbBlockEnd
  0
BLOCK
  5
2A9
330
297
100
AcDbEntity
  8
0
100
AcDbBlockBegin
  2
D15
 70
     0
 10
0.0
 20
0.0
 30
0.0
  3
D15
  1

  0
WIPEOUT
  5
298
330
297
100
AcDbEntity
  8
0
160
               152
310
98000000040000000C0000000E000000120000000C00000016000000000000C20C00000014000000010000006C0000000700000004000000FDBD5A02408481409E162A043A6F6140000000000000000038CF349DCDA781405D37982EDD1F6240000000000000000004E54B285A0B8240422470B345DF604000000000000000
310
00CAD3718DCCE7814084030289A22E60400000000000000000
100
AcDbWipeout
 90
        0
 10
560.531254490779
 20
129.4573407210665
 30
0.0
 11
16.88776768112518
 21
0.0
 31
0.0
 12
0.0
 22
16.88776768112518
 32
0.0
 13
1.0
 23
1.0
340
0
 70
     7
280
     1
281
    50
282
    50
283
     0
360
0
 71
     2
 91
        5
 14
-0.5000000000000071
 24
-0.093239528869173
 14
-0.2368424828798226
 24
-0.4200984599875088
 14
0.4999999999999929
 24
0.173141068881665
 14
0.2368424828798084
 24
0.5
 14
-0.5000000000000071
 24
-0.093239528869173
290
     0
  0
LINE
  5
299
330
297
100
AcDbEntity
  8
Системный слой
  6
K5LT_THIN
 62
     7
370
    18
100
AcDbLine
 10
560.3377389644861
 20
143.3258330447802
 30
0.0
 11
562.6485786323926
 21
138.843274675212
 31
0.0
  0
LINE
  5
29A
330
297
100
AcDbEntity
  8
Системный слой
  6
K5LT_THIN
 62
     7
370
    18
100
AcDbLine
 10
562.6485786323926
 20
138.843274675212
 30
0.0
 11
561.8599845196434
 21
139.0911230818897
 31
0.0
  0
LINE
  5
29B
330
297
100
AcDbEntity
  8
Системный слой
  6
K5LT_THIN
 62
     7
370
    18
100
AcDbLine
 10
561.8599845196434
 20
139.0911230818897
 30
0.0
 11
561.4096671969291
 21
138.3979248301472
 31
0.0
  0
LINE
  5
29C
330
297
100
AcDbEntity
  8
Системный слой
  6
K5LT_THIN
 62
     7
370
    18
100
AcDbLine
 10
561.4096671969291
 20
138.3979248301472
 30
0.0
 11
560.3377389644861
 21
143.3258330447802
 31
0.0
  0
HATCH
  5
29D
330
297
100
AcDbEntity
  8
Системный слой
 62
     7
100
AcDbHatch
 10
0.0
 20
0.0
 30
0.0
210
0.0
220
0.0
230
1.0
  2
SOLID
 70
     1
 71
     0
 91
        1
 92
        1
 93
        4
 72
     1
 10
562.6485786323926
 20
138.843274675212
 11
560.3377389644861
 21
143.3258330447802
 72
     1
 10
560.3377389644861
 20
143.3258330447802
 11
561.4096671969291
 21
138.3979248301472
 72
     1
 10
561.4096671969291
 20
138.3979248301472
 11
561.8599845196434
 21
139.0911230818897
 72
     1
 10
561.8599845196434
 20
139.0911230818897
 11
562.6485786323926
 21
138.843274675212
 97
        0
 75
     0
 76
     1
 98
        0
  0
LINE
  5
29E
330
297
100
AcDbEntity
  8
Системный слой
  6
K5LT_THIN
 62
     7
370
    18
100
AcDbLine
 10
577.2959477808221
 20
129.6726031585915
 30
0.0
 11
572.2528050764388
 21
129.6680020087009
 31
0.0
  0
LINE
  5
29F
330
297
100
AcDbEntity
  8
Системный слой
  6
K5LT_THIN
 62
     7
370
    18
100
AcDbLine
 10
572.2528050764388
 20
129.6680020087009
 30
0.0
 11
572.8339118725357
 21
130.2559002982758
 31
0.0
  0
LINE
  5
2A0
330
297
100
AcDbEntity
  8
Системный слой
  6
K5LT_THIN
 62
     7
370
    18
100
AcDbLine
 10
572.8339118725357
 20
130.2559002982758
 30
0.0
 11
572.4234551334581
 21
130.9734201744472
 31
0.0
  0
LINE
  5
2A1
330
297
100
AcDbEntity
  8
Системный слой
  6
K5LT_THIN
 62
     7
370
    18
100
AcDbLine
 10
572.4234551334581
 20
130.9734201744472
 30
0.0
 11
577.2959477808221
 21
129.6726031585915
 31
0.0
  0
HATCH
  5
2A2
330
297
100
AcDbEntity
  8
Системный слой
 62
     7
100
AcDbHatch
 10
0.0
 20
0.0
 30
0.0
210
0.0
220
0.0
230
1.0
  2
SOLID
 70
     1
 71
     0
 91
        1
 92
        1
 93
        4
 72
     1
 10
577.2959477808221
 20
129.6726031585915
 11
572.4234551334581
 21
130.9734201744472
 72
     1
 10
572.4234551334581
 20
130.9734201744472
 11
572.8339118725357
 21
130.2559002982758
 72
     1
 10
572.8339118725357
 20
130.2559002982758
 11
572.2528050764388
 21
129.6680020087009
 72
     1
 10
572.2528050764388
 20
129.6680020087009
 11
577.2959477808221
 21
129.6726031585915
 97
        0
 75
     0
 76
     1
 98
        0
  0
ARC
  5
2A3
330
297
100
AcDbEntity
  8
Системный слой
  6
K5LT_THIN
 62
     7
370
    18
100
AcDbCircle
 10
577.2959477807756
 20
147.0308230279234
 30
0.0
 40
17.35821986933188
100
AcDbArc
 50
192.3241957292944
 51
270.0000000001535
  0
LINE
  5
2A4
330
297
100
AcDbEntity
  8
Системный слой
  6
K5LT_THIN
 62
     7
370
    18
100
AcDbLine
 10
583.122833718329
 20
148.3038675024564
 30
0.0
 11
558.383827913244
 21
142.8989471070476
 31
0.0
  0
LINE
  5
2A5
330
297
100
AcDbEntity
  8
Системный слой
  6
K5LT_THIN
 62
     7
370
    18
100
AcDbLine
 10
577.2959477807367
 20
161.5308230281013
 30
0.0
 11
577.2959477808274
 21
127.6726031585915
 31
0.0
  0
MTEXT
  5
2A6
330
297
100
AcDbEntity
  8
Системный слой
 62
     7
100
AcDbMText
 10
564.6874871065785
 20
144.638146122559
 30
0.0
 40
0.0
 41
0.0
 46
0.0
 71
     1
 72
     1
  1
\H3.5;\W0.965;\Q15;\Q15;\H5.00;77
  7
KTEXTSTYLE
 11
0.7789232853333113
 21
-0.6271192195791491
 31
0.0
 73
     1
 44
1.0
  0
MTEXT
  5
2A7
330
297
100
AcDbEntity
  8
Системный слой
 62
     7
100
AcDbMText
 10
569.6310336147393
 20
140.6580455317486
 30
0.0
 40
0.0
 41
0.0
 46
0.0
 71
     1
 72
     1
  1
\H3.5;\W0.965;\Q15;\Q15;\H5.00;°
  7
KTEXTSTYLE
 11
0.7789232853333113
 21
-0.6271192195791491
 31
0.0
 73
     1
 44
1.0
  0
MTEXT
  5
2A8
330
297
100
AcDbEntity
  8
Системный слой
 62
     7
100
AcDbMText
 10
571.2884091150436
 20
139.3236753185694
 30
0.0
 40
0.0
 41
0.0
 46
0.0
 71
     1
 72
     1
  1
\H3.5;\W0.965;\Q15;\Q15;\H5.00;41'
  7
KTEXTSTYLE
 11
0.7789232853333113
 21
-0.6271192195791491
 31
0.0
 73
     1
 44
1.0
  0
ENDBLK
  5
2AA
330
297
100
AcDbEntity
  8
0
100
AcDbBlockEnd
  0
BLOCK
  5
2BE
330
2AC
100
AcDbEntity
  8
0
100
AcDbBlockBegin
  2
D16
 70
     0
 10
0.0
 20
0.0
 30
0.0
  3
D16
  1

  0
WIPEOUT
  5
2AD
330
2AC
100
AcDbEntity
  8
0
160
               152
310
98000000040000000C0000000E000000120000000C00000016000000000000C20C00000014000000010000006C0000000700000004000000E8106C6C13F48240A48D3B1123E05E40000000000000000040AD09071DCA8240170EE59B8D08604000000000000000008D25F67EDE2183409994E980F28A614000000000000000
310
00358958E4D44B8340544DA26D76F260400000000000000000
100
AcDbWipeout
 90
        0
 10
601.2641735797879
 20
123.5021403390479
 30
0.0
 11
16.83996214681085
 21
0.0
 31
0.0
 12
0.0
 22
16.83996214681085
 32
0.0
 13
1.0
 23
1.0
340
0
 70
     7
280
     1
281
    50
282
    50
283
     0
360
0
 71
     2
 91
        5
 14
-0.188520050280367
 24
0.5000000000000009
 14
-0.5
 24
0.2170334547144588
 14
0.1513949925744313
 24
-0.4999999999999991
 14
0.4628749422940643
 24
-0.2170334547144579
 14
-0.188520050280367
 24
0.5000000000000009
290
     0
  0
LINE
  5
2AE
330
2AC
100
AcDbEntity
  8
Системный слой
  6
K5LT_THIN
 62
     7
370
    18
100
AcDbLine
 10
623.7049822332804
 20
161.5627625589225
 30
0.0
 11
624.5751849240166
 21
156.5952625051338
 31
0.0
  0
LINE
  5
2AF
330
2AC
100
AcDbEntity
  8
Системный слой
  6
K5LT_THIN
 62
     7
370
    18
100
AcDbLine
 10
624.5751849240166
 20
156.5952625051338
 30
0.0
 11
623.8962638758674
 21
157.0668298043977
 31
0.0
  0
LINE
  5
2B0
330
2AC
100
AcDbEntity
  8
Системный слой
  6
K5LT_THIN
 62
     7
370
    18
100
AcDbLine
 10
623.8962638758674
 20
157.0668298043977
 30
0.0
 11
623.2598498594039
 21
156.5393009359894
 31
0.0
  0
LINE
  5
2B1
330
2AC
100
AcDbEntity
  8
Системный слой
  6
K5LT_THIN
 62
     7
370
    18
100
AcDbLine
 10
623.2598498594039
 20
156.5393009359894
 30
0.0
 11
623.7049822332804
 21
161.5627625589225
 31
0.0
  0
HATCH
  5
2B2
330
2AC
100
AcDbEntity
  8
Системный слой
 62
     7
100
AcDbHatch
 10
0.0
 20
0.0
 30
0.0
210
0.0
220
0.0
230
1.0
  2
SOLID
 70
     1
 71
     0
 91
        1
 92
        1
 93
        4
 72
     1
 10
624.5751849240166
 20
156.5952625051338
 11
623.7049822332804
 21
161.5627625589225
 72
     1
 10
623.7049822332804
 20
161.5627625589225
 11
623.2598498594039
 21
156.5393009359894
 72
     1
 10
623.2598498594039
 20
156.5393009359894
 11
623.8962638758674
 21
157.0668298043977
 72
     1
 10
623.8962638758674
 20
157.0668298043977
 11
624.5751849240166
 21
156.5952625051338
 97
        0
 75
     0
 76
     1
 98
        0
  0
LINE
  5
2B3
330
2AC
100
AcDbEntity
  8
Системный слой
  6
K5LT_THIN
 62
     7
370
    18
100
AcDbLine
 10
581.6959477807367
 20
115.3206461071532
 30
0.0
 11
586.6537421467641
 21
116.2445424928708
 31
0.0
  0
LINE
  5
2B4
330
2AC
100
AcDbEntity
  8
Системный слой
  6
K5LT_THIN
 62
     7
370
    18
100
AcDbLine
 10
586.6537421467641
 20
116.2445424928708
 30
0.0
 11
586.1895478651772
 21
115.5605591770674
 31
0.0
  0
LINE
  5
2B5
330
2AC
100
AcDbEntity
  8
Системный слой
  6
K5LT_THIN
 62
     7
370
    18
100
AcDbLine
 10
586.1895478651772
 20
115.5605591770674
 30
0.0
 11
586.7239313801327
 21
114.9298898768005
 31
0.0
  0
LINE
  5
2B6
330
2AC
100
AcDbEntity
  8
Системный слой
  6
K5LT_THIN
 62
     7
370
    18
100
AcDbLine
 10
586.7239313801327
 20
114.9298898768005
 30
0.0
 11
581.6959477807367
 21
115.3206461071532
 31
0.0
  0
HATCH
  5
2B7
330
2AC
100
AcDbEntity
  8
Системный слой
 62
     7
100
AcDbHatch
 10
0.0
 20
0.0
 30
0.0
210
0.0
220
0.0
230
1.0
  2
SOLID
 70
     1
 71
     0
 91
        1
 92
        1
 93
        4
 72
     1
 10
586.7239313801327
 20
114.9298898768005
 11
586.1895478651772
 21
115.5605591770674
 72
     1
 10
586.1895478651772
 20
115.5605591770674
 11
586.6537421467641
 21
116.2445424928708
 72
     1
 10
586.6537421467641
 20
116.2445424928708
 11
581.6959477807367
 21
115.3206461071532
 72
     1
 10
581.6959477807367
 20
115.3206461071532
 11
586.7239313801327
 21
114.9298898768005
 97
        0
 75
     0
 76
     1
 98
        0
  0
ARC
  5
2B8
330
2AC
100
AcDbEntity
  8
Системный слой
  6
K5LT_THIN
 62
     7
370
    18
100
AcDbCircle
 10
581.6959477807367
 20
157.5234323231014
 30
0.0
 40
42.20278621594815
100
AcDbArc
 50
270.0
 51
5.492324557126969
  0
LINE
  5
2B9
330
2AC
100
AcDbEntity
  8
Системный слой
  6
K5LT_THIN
 62
     7
370
    18
100
AcDbLine
 10
592.0959477807367
 20
158.5234323231013
 30
0.0
 11
625.695800291481
 21
161.754187372211
 31
0.0
  0
LINE
  5
2BA
330
2AC
100
AcDbEntity
  8
Системный слой
  6
K5LT_THIN
 62
     7
370
    18
100
AcDbLine
 10
581.6959477807368
 20
152.5234323231013
 30
0.0
 11
581.6959477807367
 21
113.3206461071532
 31
0.0
  0
MTEXT
  5
2BB
330
2AC
100
AcDbEntity
  8
Системный слой
 62
     7
100
AcDbMText
 10
601.6039870019747
 20
127.9585799269834
 30
0.0
 40
0.0
 41
0.0
 46
0.0
 71
     1
 72
     1
  1
\H3.5;\W0.965;\Q15;\Q15;\H5.00;95
  7
KTEXTSTYLE
 11
0.6724163863841285
 21
0.7401730901094085
 31
0.0
 73
     1
 44
1.0
  0
MTEXT
  5
2BC
330
2AC
100
AcDbEntity
  8
Системный слой
 62
     7
100
AcDbMText
 10
605.6347640523024
 20
132.3955222224064
 30
0.0
 40
0.0
 41
0.0
 46
0.0
 71
     1
 72
     1
  1
\H3.5;\W0.965;\Q15;\Q15;\H5.00;°
  7
KTEXTSTYLE
 11
0.6724163863841285
 21
0.7401730901094085
 31
0.0
 73
     1
 44
1.0
  0
MTEXT
  5
2BD
330
2AC
100
AcDbEntity
  8
Системный слой
 62
     7
100
AcDbMText
 10
607.0655162406526
 20
133.9704455732884
 30
0.0
 40
0.0
 41
0.0
 46
0.0
 71
     1
 72
     1
  1
\H3.5;\W0.965;\Q15;\Q15;\H5.00;30'
  7
KTEXTSTYLE
 11
0.6724163863841285
 21
0.7401730901094085
 31
0.0
 73
     1
 44
1.0
  0
ENDBLK
  5
2BF
330
2AC
100
AcDbEntity
  8
0
100
AcDbBlockEnd
  0
BLOCK
  5
2D4
330
2C1
100
AcDbEntity
  8
0
100
AcDbBlockBegin
  2
D17
 70
     0
 10
0.0
 20
0.0
 30
0.0
  3
D17
  1

  0
WIPEOUT
  5
2C2
330
2C1
100
AcDbEntity
  8
0
160
               152
310
98000000040000000C0000000E000000120000000C00000016000000000000C20C00000014000000010000006C00000007000000040000001E234580C4A88240D17BC4CF4080724000000000000000001E234580C4A8824004AFF7F7DBED724000000000000000006604C0C41DCF824004AFF7F7DBED724000000000000000
310
006604C0C41DCF8240D17BC4CF408072400000000000000000
100
AcDbWipeout
 90
        0
 10
597.0959477807371
 20
296.0158231425422
 30
0.0
 11
6.850380134582508
 21
0.0
 31
0.0
 12
0.0
 22
6.850380134582508
 32
0.0
 13
1.0
 23
1.0
340
0
 70
     7
280
     1
281
    50
282
    50
283
     0
360
0
 71
     2
 91
        5
 14
-0.5
 24
0.4999999999999929
 14
-0.5
 24
-0.5000000000000071
 14
0.1997549847321807
 24
-0.5000000000000071
 14
0.1997549847321807
 24
0.4999999999999929
 14
-0.5
 24
0.4999999999999929
290
     0
  0
LINE
  5
2C3
330
2C1
100
AcDbEntity
  8
Системный слой
  6
K5LT_THIN
 62
     7
370
    18
100
AcDbLine
 10
584.0959477807367
 20
295.0558230281013
 30
0.0
 11
579.0959477807367
 21
295.7140855193275
 31
0.0
  0
LINE
  5
2C4
330
2C1
100
AcDbEntity
  8
Системный слой
  6
K5LT_THIN
 62
     7
370
    18
100
AcDbLine
 10
579.0959477807367
 20
295.7140855193275
 30
0.0
 11
579.5959477807367
 21
295.0558230281013
 31
0.0
  0
LINE
  5
2C5
330
2C1
100
AcDbEntity
  8
Системный слой
  6
K5LT_THIN
 62
     7
370
    18
100
AcDbLine
 10
579.5959477807367
 20
295.0558230281013
 30
0.0
 11
579.0959477807367
 21
294.3975605368751
 31
0.0
  0
LINE
  5
2C6
330
2C1
100
AcDbEntity
  8
Системный слой
  6
K5LT_THIN
 62
     7
370
    18
100
AcDbLine
 10
579.0959477807367
 20
294.3975605368751
 30
0.0
 11
584.0959477807367
 21
295.0558230281013
 31
0.0
  0
LINE
  5
2C7
330
2C1
100
AcDbEntity
  8
Системный слой
  6
K5LT_THIN
 62
     7
370
    18
100
AcDbLine
 10
584.0959477807367
 20
295.0558230281013
 30
0.0
 11
577.0959477807367
 21
295.0558230281013
 31
0.0
  0
HATCH
  5
2C8
330
2C1
100
AcDbEntity
  8
Системный слой
 62
     7
100
AcDbHatch
 10
0.0
 20
0.0
 30
0.0
210
0.0
220
0.0
230
1.0
  2
SOLID
 70
     1
 71
     0
 91
        1
 92
        1
 93
        4
 72
     1
 10
584.0959477807367
 20
295.0558230281013
 11
579.0959477807367
 21
295.7140855193275
 72
     1
 10
579.0959477807367
 20
295.7140855193275
 11
579.5959477807367
 21
295.0558230281013
 72
     1
 10
579.5959477807367
 20
295.0558230281013
 11
579.0959477807367
 21
294.3975605368751
 72
     1
 10
579.0959477807367
 20
294.3975605368751
 11
584.0959477807367
 21
295.0558230281013
 97
        0
 75
     0
 76
     1
 98
        0
  0
LINE
  5
2C9
330
2C1
100
AcDbEntity
  8
Системный слой
  6
K5LT_THIN
 62
     7
370
    18
100
AcDbLine
 10
592.0959477807371
 20
295.0558230281013
 30
0.0
 11
597.0959477807371
 21
294.3975605368751
 31
0.0
  0
LINE
  5
2CA
330
2C1
100
AcDbEntity
  8
Системный слой
  6
K5LT_THIN
 62
     7
370
    18
100
AcDbLine
 10
597.0959477807371
 20
294.3975605368751
 30
0.0
 11
596.5959477807371
 21
295.0558230281013
 31
0.0
  0
LINE
  5
2CB
330
2C1
100
AcDbEntity
  8
Системный слой
  6
K5LT_THIN
 62
     7
370
    18
100
AcDbLine
 10
596.5959477807371
 20
295.0558230281013
 30
0.0
 11
597.0959477807371
 21
295.7140855193275
 31
0.0
  0
LINE
  5
2CC
330
2C1
100
AcDbEntity
  8
Системный слой
  6
K5LT_THIN
 62
     7
370
    18
100
AcDbLine
 10
597.0959477807371
 20
295.7140855193275
 30
0.0
 11
592.0959477807371
 21
295.0558230281013
 31
0.0
  0
LINE
  5
2CD
330
2C1
100
AcDbEntity
  8
Системный слой
  6
K5LT_THIN
 62
     7
370
    18
100
AcDbLine
 10
592.0959477807371
 20
295.0558230281013
 30
0.0
 11
599.0959477807371
 21
295.0558230281013
 31
0.0
  0
HATCH
  5
2CE
330
2C1
100
AcDbEntity
  8
Системный слой
 62
     7
100
AcDbHatch
 10
0.0
 20
0.0
 30
0.0
210
0.0
220
0.0
230
1.0
  2
SOLID
 70
     1
 71
     0
 91
        1
 92
        1
 93
        4
 72
     1
 10
596.5959477807371
 20
295.0558230281013
 11
597.0959477807371
 21
295.7140855193275
 72
     1
 10
597.0959477807371
 20
295.7140855193275
 11
592.0959477807371
 21
295.0558230281013
 72
     1
 10
592.0959477807371
 20
295.0558230281013
 11
597.0959477807371
 21
294.3975605368751
 72
     1
 10
597.0959477807371
 20
294.3975605368751
 11
596.5959477807371
 21
295.0558230281013
 97
        0
 75
     0
 76
     1
 98
        0
  0
LINE
  5
2CF
330
2C1
100
AcDbEntity
  8
Системный слой
  6
K5LT_THIN
 62
     7
370
    18
100
AcDbLine
 10
584.0959477807367
 20
295.0558230281013
 30
0.0
 11
592.0959477807371
 21
295.0558230281013
 31
0.0
  0
LINE
  5
2D0
330
2C1
100
AcDbEntity
  8
Системный слой
  6
K5LT_THIN
 62
     7
370
    18
100
AcDbLine
 10
592.0959477807371
 20
295.0558230281013
 30
0.0
 11
604.089268245825
 21
295.0558230281013
 31
0.0
  0
LINE
  5
2D1
330
2C1
100
AcDbEntity
  8
Системный слой
  6
K5LT_THIN
 62
     7
370
    18
100
AcDbLine
 10
584.0959477807367
 20
303.7808230281013
 30
0.0
 11
584.0959477807367
 21
293.0558230281013
 31
0.0
  0
LINE
  5
2D2
330
2C1
100
AcDbEntity
  8
Системный слой
  6
K5LT_THIN
 62
     7
370
    18
100
AcDbLine
 10
592.0959477807371
 20
298.9772951077729
 30
0.0
 11
592.0959477807371
 21
293.0558230281013
 31
0.0
  0
MTEXT
  5
2D3
330
2C1
100
AcDbEntity
  8
Системный слой
 62
     7
100
AcDbMText
 10
597.0959477807371
 20
302.5904065966743
 30
0.0
 40
0.0
 41
0.0
 46
0.0
 71
     1
 72
     1
  1
\H3.5;\W0.965;\Q15;\Q15;\H5.00;8
  7
KTEXTSTYLE
 73
     1
 44
1.0
  0
ENDBLK
  5
2D5
330
2C1
100
AcDbEntity
  8
0
100
AcDbBlockEnd
  0
BLOCK
  5
32C
330
2D7
100
AcDbEntity
  8
0
100
AcDbBlockBegin
  2
U4
 70
     0
 10
0.0
 20
0.0
 30
0.0
  3
U4
  1

  0
LINE
  5
2D9
330
2D7
100
AcDbEntity
  8
0
  6
K5LT_BASIC
 62
     5
420
      255
370
    60
100
AcDbLine
 10
20.0
 20
60.0
 30
0.0
 11
205.0
 21
60.0
 31
0.0
  0
LINE
  5
2DA
330
2D7
100
AcDbEntity
  8
0
  6
K5LT_THIN
 62
     7
370
    18
100
AcDbLine
 10
20.0
 20
50.0
 30
0.0
 11
85.0
 21
50.0
 31
0.0
  0
LINE
  5
2DB
330
2D7
100
AcDbEntity
  8
0
  6
K5LT_THIN
 62
     7
370
    18
100
AcDbLine
 10
20.0
 20
45.0
 30
0.0
 11
85.0
 21
45.0
 31
0.0
  0
LINE
  5
2DC
330
2D7
100
AcDbEntity
  8
0
  6
K5LT_THIN
 62
     7
370
    18
100
AcDbLine
 10
20.0
 20
30.0
 30
0.0
 11
85.0
 21
30.0
 31
0.0
  0
LINE
  5
2DD
330
2D7
100
AcDbEntity
  8
0
  6
K5LT_THIN
 62
     7
370
    18
100
AcDbLine
 10
20.0
 20
25.0
 30
0.0
 11
85.0
 21
25.0
 31
0.0
  0
LINE
  5
2DE
330
2D7
100
AcDbEntity
  8
0
  6
K5LT_THIN
 62
     7
370
    18
100
AcDbLine
 10
20.0
 20
20.0
 30
0.0
 11
85.0
 21
20.0
 31
0.0
  0
LINE
  5
2DF
330
2D7
100
AcDbEntity
  8
0
  6
K5LT_THIN
 62
     7
370
    18
100
AcDbLine
 10
20.0
 20
15.0
 30
0.0
 11
85.0
 21
15.0
 31
0.0
  0
LINE
  5
2E0
330
2D7
100
AcDbEntity
  8
0
  6
K5LT_THIN
 62
     7
370
    18
100
AcDbLine
 10
20.0
 20
10.0
 30
0.0
 11
85.0
 21
10.0
 31
0.0
  0
LINE
  5
2E1
330
2D7
100
AcDbEntity
  8
0
  6
K5LT_BASIC
 62
     5
420
      255
370
    60
100
AcDbLine
 10
20.0
 20
5.0
 30
0.0
 11
20.0
 21
60.0
 31
0.0
  0
LINE
  5
2E2
330
2D7
100
AcDbEntity
  8
0
  6
K5LT_THIN
 62
     7
370
    18
100
AcDbLine
 10
20.0
 20
55.0
 30
0.0
 11
85.0
 21
55.0
 31
0.0
  0
LINE
  5
2E3
330
2D7
100
AcDbEntity
  8
0
  6
K5LT_BASIC
 62
     5
420
      255
370
    60
100
AcDbLine
 10
37.0
 20
5.0
 30
0.0
 11
37.0
 21
60.0
 31
0.0
  0
LINE
  5
2E4
330
2D7
100
AcDbEntity
  8
0
  6
K5LT_BASIC
 62
     5
420
      255
370
    60
100
AcDbLine
 10
60.0
 20
5.0
 30
0.0
 11
60.0
 21
60.0
 31
0.0
  0
LINE
  5
2E5
330
2D7
100
AcDbEntity
  8
0
  6
K5LT_BASIC
 62
     5
420
      255
370
    60
100
AcDbLine
 10
75.0
 20
5.0
 30
0.0
 11
75.0
 21
60.0
 31
0.0
  0
LINE
  5
2E6
330
2D7
100
AcDbEntity
  8
0
  6
K5LT_BASIC
 62
     5
420
      255
370
    60
100
AcDbLine
 10
85.0
 20
5.0
 30
0.0
 11
85.0
 21
60.0
 31
0.0
  0
LINE
  5
2E7
330
2D7
100
AcDbEntity
  8
0
  6
K5LT_BASIC
 62
     5
420
      255
370
    60
100
AcDbLine
 10
155.0
 20
5.0
 30
0.0
 11
155.0
 21
45.0
 31
0.0
  0
LINE
  5
2E8
330
2D7
100
AcDbEntity
  8
0
  6
K5LT_BASIC
 62
     5
420
      255
370
    60
100
AcDbLine
 10
170.0
 20
25.0
 30
0.0
 11
170.0
 21
45.0
 31
0.0
  0
LINE
  5
2E9
330
2D7
100
AcDbEntity
  8
0
  6
K5LT_BASIC
 62
     5
420
      255
370
    60
100
AcDbLine
 10
187.0
 20
25.0
 30
0.0
 11
187.0
 21
45.0
 31
0.0
  0
LINE
  5
2EA
330
2D7
100
AcDbEntity
  8
0
  6
K5LT_BASIC
 62
     5
420
      255
370
    60
100
AcDbLine
 10
20.0
 20
40.0
 30
0.0
 11
85.0
 21
40.0
 31
0.0
  0
LINE
  5
2EB
330
2D7
100
AcDbEntity
  8
0
  6
K5LT_BASIC
 62
     5
420
      255
370
    60
100
AcDbLine
 10
20.0
 20
35.0
 30
0.0
 11
85.0
 21
35.0
 31
0.0
  0
LINE
  5
2EC
330
2D7
100
AcDbEntity
  8
0
  6
K5LT_BASIC
 62
     5
420
      255
370
    60
100
AcDbLine
 10
155.0
 20
20.0
 30
0.0
 11
205.0
 21
20.0
 31
0.0
  0
LINE
  5
2ED
330
2D7
100
AcDbEntity
  8
0
  6
K5LT_BASIC
 62
     5
420
      255
370
    60
100
AcDbLine
 10
170.0
 20
40.0
 30
0.0
 11
205.0
 21
40.0
 31
0.0
  0
LINE
  5
2EE
330
2D7
100
AcDbEntity
  8
0
  6
K5LT_BASIC
 62
     5
420
      255
370
    60
100
AcDbLine
 10
155.0
 20
40.0
 30
0.0
 11
170.0
 21
40.0
 31
0.0
  0
LINE
  5
2EF
330
2D7
100
AcDbEntity
  8
0
  6
K5LT_BASIC
 62
     5
420
      255
370
    60
100
AcDbLine
 10
85.0
 20
45.0
 30
0.0
 11
205.0
 21
45.0
 31
0.0
  0
LINE
  5
2F0
330
2D7
100
AcDbEntity
  8
0
  6
K5LT_BASIC
 62
     5
420
      255
370
    60
100
AcDbLine
 10
85.0
 20
20.0
 30
0.0
 11
155.0
 21
20.0
 31
0.0
  0
LINE
  5
2F1
330
2D7
100
AcDbEntity
  8
0
  6
K5LT_BASIC
 62
     5
420
      255
370
    60
100
AcDbLine
 10
155.0
 20
25.0
 30
0.0
 11
205.0
 21
25.0
 31
0.0
  0
LINE
  5
2F2
330
2D7
100
AcDbEntity
  8
0
  6
K5LT_BASIC
 62
     5
420
      255
370
    60
100
AcDbLine
 10
175.5749969482422
 20
20.0
 30
0.0
 11
175.5749969482422
 21
25.0
 31
0.0
  0
LINE
  5
2F3
330
2D7
100
AcDbEntity
  8
0
  6
K5LT_THIN
 62
     7
370
    18
100
AcDbLine
 10
159.9645843505859
 20
25.0
 30
0.0
 11
159.9645843505859
 21
40.0
 31
0.0
  0
LINE
  5
2F4
330
2D7
100
AcDbEntity
  8
0
  6
K5LT_THIN
 62
     7
370
    18
100
AcDbLine
 10
164.9822998046875
 20
25.0
 30
0.0
 11
164.9822998046875
 21
40.0
 31
0.0
  0
LINE
  5
2F5
330
2D7
100
AcDbEntity
  8
0
  6
K5LT_BASIC
 62
     5
420
      255
370
    60
100
AcDbLine
 10
27.0
 20
35.0
 30
0.0
 11
27.0
 21
60.0
 31
0.0
  0
MTEXT
  5
2F6
330
2D7
100
AcDbEntity
  8
0
 62
     7
100
AcDbMText
 10
173.0354166030884
 20
44.24770736694336
 30
0.0
 40
0.0
 41
0.0
 46
0.0
 71
     1
 72
     1
  1
\H3.5;\W0.965;\Q15;\Q15;Масса
  7
KTEXTSTYLE
 73
     1
 44
1.0
  0
MTEXT
  5
2F7
330
2D7
100
AcDbEntity
  8
0
 62
     7
100
AcDbMText
 10
187.8895835876465
 20
44.24770736694336
 30
0.0
 40
0.0
 41
0.0
 46
0.0
 71
     1
 72
     1
  1
\H3.5;\W0.965;\Q15;\Q15;Масштаб
  7
KTEXTSTYLE
 73
     1
 44
1.0
  0
MTEXT
  5
2F8
330
2D7
100
AcDbEntity
  8
0
 62
     7
100
AcDbMText
 10
20.61540865898132
 20
39.2266731262207
 30
0.0
 40
0.0
 41
0.0
 46
0.0
 71
     1
 72
     1
  1
\H3.5;\W0.965;\Q15;\Q15;\W0.784;Изм.
  7
KTEXTSTYLE
 73
     1
 44
1.0
  0
MTEXT
  5
2F9
330
2D7
100
AcDbEntity
  8
0
 62
     7
100
AcDbMText
 10
27.56227970123291
 20
39.2266731262207
 30
0.0
 40
0.0
 41
0.0
 46
0.0
 71
     1
 72
     1
  1
\H3.5;\W0.965;\Q15;\Q15;\W0.846;Лист
  7
KTEXTSTYLE
 73
     1
 44
1.0
  0
MTEXT
  5
2FA
330
2D7
100
AcDbEntity
  8
0
 62
     7
100
AcDbMText
 10
40.82708358764648
 20
39.24770736694336
 30
0.0
 40
0.0
 41
0.0
 46
0.0
 71
     1
 72
     1
  1
\H3.5;\W0.965;\Q15;\Q15;№ докум.
  7
KTEXTSTYLE
 73
     1
 44
1.0
  0
MTEXT
  5
2FB
330
2D7
100
AcDbEntity
  8
0
 62
     7
100
AcDbMText
 10
63.26666641235352
 20
39.24770736694336
 30
0.0
 40
0.0
 41
0.0
 46
0.0
 71
     1
 72
     1
  1
\H3.5;\W0.965;\Q15;\Q15;Подп.
  7
KTEXTSTYLE
 73
     1
 44
1.0
  0
MTEXT
  5
2FC
330
2D7
100
AcDbEntity
  8
0
 62
     7
100
AcDbMText
 10
75.56227970123291
 20
39.2266731262207
 30
0.0
 40
0.0
 41
0.0
 46
0.0
 71
     1
 72
     1
  1
\H3.5;\W0.965;\Q15;\Q15;\W0.846;Дата
  7
KTEXTSTYLE
 73
     1
 44
1.0
  0
MTEXT
  5
2FD
330
2D7
100
AcDbEntity
  8
0
 62
     7
100
AcDbMText
 10
158.6635417938232
 20
44.24770736694336
 30
0.0
 40
0.0
 41
0.0
 46
0.0
 71
     1
 72
     1
  1
\H3.5;\W0.965;\Q15;\Q15;Лит.
  7
KTEXTSTYLE
 73
     1
 44
1.0
  0
MTEXT
  5
2FE
330
2D7
100
AcDbEntity
  8
0
 62
     7
100
AcDbMText
 10
20.5
 20
34.24770736694336
 30
0.0
 40
0.0
 41
0.0
 46
0.0
 71
     1
 72
     1
  1
\H3.5;\W0.965;\Q15;\Q15;Разраб.
  7
KTEXTSTYLE
 73
     1
 44
1.0
  0
MTEXT
  5
2FF
330
2D7
100
AcDbEntity
  8
0
 62
     7
100
AcDbMText
 10
20.5
 20
29.24770736694336
 30
0.0
 40
0.0
 41
0.0
 46
0.0
 71
     1
 72
     1
  1
\H3.5;\W0.965;\Q15;\Q15;Пров.
  7
KTEXTSTYLE
 73
     1
 44
1.0
  0
MTEXT
  5
300
330
2D7
100
AcDbEntity
  8
0
 62
     7
100
AcDbMText
 10
20.5
 20
24.24770736694336
 30
0.0
 40
0.0
 41
0.0
 46
0.0
 71
     1
 72
     1
  1
\H3.5;\W0.965;\Q15;\Q15;Т.контр.
  7
KTEXTSTYLE
 73
     1
 44
1.0
  0
MTEXT
  5
301
330
2D7
100
AcDbEntity
  8
0
 62
     7
100
AcDbMText
 10
156.7802104949951
 20
24.24770736694336
 30
0.0
 40
0.0
 41
0.0
 46
0.0
 71
     1
 72
     1
  1
\H3.5;\W0.965;\Q15;\Q15;Лист
  7
KTEXTSTYLE
 73
     1
 44
1.0
  0
MTEXT
  5
302
330
2D7
100
AcDbEntity
  8
0
 62
     7
100
AcDbMText
 10
177.9156227111816
 20
24.24770736694336
 30
0.0
 40
0.0
 41
0.0
 46
0.0
 71
     1
 72
     1
  1
\H3.5;\W0.965;\Q15;\Q15;Листов
  7
KTEXTSTYLE
 73
     1
 44
1.0
  0
MTEXT
  5
303
330
2D7
100
AcDbEntity
  8
0
 62
     7
100
AcDbMText
 10
20.5
 20
14.24770736694336
 30
0.0
 40
0.0
 41
0.0
 46
0.0
 71
     1
 72
     1
  1
\H3.5;\W0.965;\Q15;\Q15;Н.контр.
  7
KTEXTSTYLE
 73
     1
 44
1.0
  0
MTEXT
  5
304
330
2D7
100
AcDbEntity
  8
0
 62
     7
100
AcDbMText
 10
20.5
 20
9.24770736694336
 30
0.0
 40
0.0
 41
0.0
 46
0.0
 71
     1
 72
     1
  1
\H3.5;\W0.965;\Q15;\Q15;Утв.
  7
KTEXTSTYLE
 73
     1
 44
1.0
  0
MTEXT
  5
305
330
2D7
100
AcDbEntity
  8
0
 62
     7
100
AcDbMText
 10
192.4543085098267
 20
34.96667671203613
 30
0.0
 40
0.0
 41
0.0
 46
0.0
 71
     1
 72
     1
  1
\H3.5;\W0.965;\Q15;\Q15;\H5.00;1:1
  7
KTEXTSTYLE
 73
     1
 44
1.0
  0
MTEXT
  5
306
330
2D7
100
AcDbEntity
  8
0
 62
     7
100
AcDbMText
 10
197.905454158783
 20
24.2266731262207
 30
0.0
 40
0.0
 41
0.0
 46
0.0
 71
     1
 72
     1
  1
\H3.5;\W0.965;\Q15;\Q15;1
  7
KTEXTSTYLE
 73
     1
 44
1.0
  0
MTEXT
  5
307
330
2D7
100
AcDbEntity
  8
0
 62
     7
100
AcDbMText
 10
97.0031795501709
 20
40.95334815979004
 30
0.0
 40
0.0
 41
0.0
 46
0.0
 71
     1
 72
     1
  1
\H3.5;\W0.965;\Q15;\Q15;\H7.00;Диск ролика
  7
KTEXTSTYLE
 73
     1
 44
1.0
  0
MTEXT
  5
308
330
2D7
100
AcDbEntity
  8
0
 62
     7
100
AcDbMText
 10
98.2384147644043
 20
30.95334815979004
 30
0.0
 40
0.0
 41
0.0
 46
0.0
 71
     1
 72
     1
  1
\H3.5;\W0.965;\Q15;\Q15;\H7.00;накопителя
  7
KTEXTSTYLE
 73
     1
 44
1.0
  0
MTEXT
  5
309
330
2D7
100
AcDbEntity
  8
0
 62
     7
100
AcDbMText
 10
85.89655685424805
 20
15.95334625244141
 30
0.0
 40
0.0
 41
0.0
 46
0.0
 71
     1
 72
     1
  1
\H3.5;\W0.965;\Q15;\Q15;\H7.00;Д16 ГОСТ 4784-97
  7
KTEXTSTYLE
 73
     1
 44
1.0
  0
MTEXT
  5
30A
330
2D7
100
AcDbEntity
  8
0
 62
     7
100
AcDbMText
 10
173.3582816123962
 20
34.96667671203613
 30
0.0
 40
0.0
 41
0.0
 46
0.0
 71
     1
 72
     1
  1
\H3.5;\W0.965;\Q15;\Q15;\H5.00;1,21
  7
KTEXTSTYLE
 73
     1
 44
1.0
  0
LINE
  5
30B
330
2D7
100
AcDbEntity
  8
0
  6
K5LT_BASIC
 62
     5
420
      255
370
    60
100
AcDbLine
 10
8.0
 20
5.000000000000001
 30
0.0
 11
8.000000000000009
 21
150.0
 31
0.0
  0
LINE
  5
30C
330
2D7
100
AcDbEntity
  8
0
  6
K5LT_BASIC
 62
     5
420
      255
370
    60
100
AcDbLine
 10
13.0
 20
5.000000000000001
 30
0.0
 11
13.00000000000001
 21
150.0
 31
0.0
  0
LINE
  5
30D
330
2D7
100
AcDbEntity
  8
0
  6
K5LT_BASIC
 62
     5
420
      255
370
    60
100
AcDbLine
 10
20.0
 20
5.0
 30
0.0
 11
8.0
 21
5.000000000000001
 31
0.0
  0
LINE
  5
30E
330
2D7
100
AcDbEntity
  8
0
  6
K5LT_BASIC
 62
     5
420
      255
370
    60
100
AcDbLine
 10
20.00000000000001
 20
150.0
 30
0.0
 11
8.000000000000009
 21
150.0
 31
0.0
  0
LINE
  5
30F
330
2D7
100
AcDbEntity
  8
0
  6
K5LT_BASIC
 62
     5
420
      255
370
    60
100
AcDbLine
 10
20.0
 20
30.0
 30
0.0
 11
8.000000000000002
 21
30.0
 31
0.0
  0
LINE
  5
310
330
2D7
100
AcDbEntity
  8
0
  6
K5LT_BASIC
 62
     5
420
      255
370
    60
100
AcDbLine
 10
20.0
 20
65.0
 30
0.0
 11
8.000000000000004
 21
65.0
 31
0.0
  0
LINE
  5
311
330
2D7
100
AcDbEntity
  8
0
  6
K5LT_BASIC
 62
     5
420
      255
370
    60
100
AcDbLine
 10
20.00000000000001
 20
90.0
 30
0.0
 11
8.000000000000005
 21
90.0
 31
0.0
  0
LINE
  5
312
330
2D7
100
AcDbEntity
  8
0
  6
K5LT_BASIC
 62
     5
420
      255
370
    60
100
AcDbLine
 10
20.00000000000001
 20
115.0
 30
0.0
 11
8.000000000000007
 21
115.0
 31
0.0
  0
MTEXT
  5
313
330
2D7
100
AcDbEntity
  8
0
 62
     7
100
AcDbMText
 10
8.752291679382324
 20
6.784375190734864
 30
0.0
 40
0.0
 41
0.0
 46
0.0
 71
     1
 72
     1
  1
\H3.5;\W0.965;\Q15;\Q15;Инв. № подл.
  7
KTEXTSTYLE
 11
6.123233995736766E-17
 21
1.0
 31
0.0
 73
     1
 44
1.0
  0
MTEXT
  5
314
330
2D7
100
AcDbEntity
  8
0
 62
     7
100
AcDbMText
 10
8.752291679382326
 20
36.21458339691162
 30
0.0
 40
0.0
 41
0.0
 46
0.0
 71
     1
 72
     1
  1
\H3.5;\W0.965;\Q15;\Q15;Подп. и дата
  7
KTEXTSTYLE
 11
6.123233995736766E-17
 21
1.0
 31
0.0
 73
     1
 44
1.0
  0
MTEXT
  5
315
330
2D7
100
AcDbEntity
  8
0
 62
     7
100
AcDbMText
 10
8.752291679382328
 20
66.21458435058594
 30
0.0
 40
0.0
 41
0.0
 46
0.0
 71
     1
 72
     1
  1
\H3.5;\W0.965;\Q15;\Q15;Взам. инв. №
  7
KTEXTSTYLE
 11
6.123233995736766E-17
 21
1.0
 31
0.0
 73
     1
 44
1.0
  0
MTEXT
  5
316
330
2D7
100
AcDbEntity
  8
0
 62
     7
100
AcDbMText
 10
8.75229167938233
 20
91.78437519073486
 30
0.0
 40
0.0
 41
0.0
 46
0.0
 71
     1
 72
     1
  1
\H3.5;\W0.965;\Q15;\Q15;Инв. № дубл.
  7
KTEXTSTYLE
 11
6.123233995736766E-17
 21
1.0
 31
0.0
 73
     1
 44
1.0
  0
MTEXT
  5
317
330
2D7
100
AcDbEntity
  8
0
 62
     7
100
AcDbMText
 10
8.752291679382331
 20
121.2145833969116
 30
0.0
 40
0.0
 41
0.0
 46
0.0
 71
     1
 72
     1
  1
\H3.5;\W0.965;\Q15;\Q15;Подп. и дата
  7
KTEXTSTYLE
 11
6.123233995736766E-17
 21
1.0
 31
0.0
 73
     1
 44
1.0
  0
LINE
  5
318
330
2D7
100
AcDbEntity
  8
0
  6
K5LT_BASIC
 62
     5
420
      255
370
    60
100
AcDbLine
 10
8.0
 20
172.0
 30
0.0
 11
8.000000000000007
 21
292.0
 31
0.0
  0
LINE
  5
319
330
2D7
100
AcDbEntity
  8
0
  6
K5LT_BASIC
 62
     5
420
      255
370
    60
100
AcDbLine
 10
13.0
 20
172.0
 30
0.0
 11
13.00000000000001
 21
292.0
 31
0.0
  0
LINE
  5
31A
330
2D7
100
AcDbEntity
  8
0
  6
K5LT_BASIC
 62
     5
420
      255
370
    60
100
AcDbLine
 10
20.0
 20
172.0
 30
0.0
 11
8.0
 21
172.0
 31
0.0
  0
LINE
  5
31B
330
2D7
100
AcDbEntity
  8
0
  6
K5LT_BASIC
 62
     5
420
      255
370
    60
100
AcDbLine
 10
20.00000000000001
 20
292.0
 30
0.0
 11
8.000000000000007
 21
292.0
 31
0.0
  0
LINE
  5
31C
330
2D7
100
AcDbEntity
  8
0
  6
K5LT_BASIC
 62
     5
420
      255
370
    60
100
AcDbLine
 10
20.0
 20
232.0
 30
0.0
 11
8.000000000000004
 21
232.0
 31
0.0
  0
MTEXT
  5
31D
330
2D7
100
AcDbEntity
  8
0
 62
     7
100
AcDbMText
 10
8.752291679382326
 20
194.0218753814697
 30
0.0
 40
0.0
 41
0.0
 46
0.0
 71
     1
 72
     1
  1
\H3.5;\W0.965;\Q15;\Q15;Справ. №
  7
KTEXTSTYLE
 11
6.123233995736766E-17
 21
1.0
 31
0.0
 73
     1
 44
1.0
  0
MTEXT
  5
31E
330
2D7
100
AcDbEntity
  8
0
 62
     7
100
AcDbMText
 10
8.75229167938233
 20
250.8875007629395
 30
0.0
 40
0.0
 41
0.0
 46
0.0
 71
     1
 72
     1
  1
\H3.5;\W0.965;\Q15;\Q15;Перв. примен.
  7
KTEXTSTYLE
 11
6.123233995736766E-17
 21
1.0
 31
0.0
 73
     1
 44
1.0
  0
LINE
  5
31F
330
2D7
100
AcDbEntity
  8
0
  6
K5LT_BASIC
 62
     5
420
      255
370
    60
100
AcDbLine
 10
90.0
 20
278.0
 30
0.0
 11
20.0
 21
278.0
 31
0.0
  0
LINE
  5
320
330
2D7
100
AcDbEntity
  8
0
  6
K5LT_BASIC
 62
     5
420
      255
370
    60
100
AcDbLine
 10
90.0
 20
292.0
 30
0.0
 11
90.0
 21
278.0
 31
0.0
  0
MTEXT
  5
321
330
2D7
100
AcDbEntity
  8
0
 62
     7
100
AcDbMText
 10
95.5
 20
4.247708320617676
 30
0.0
 40
0.0
 41
0.0
 46
0.0
 71
     1
 72
     1
  1
\H3.5;\W0.965;\Q15;\Q15;Копировал
  7
KTEXTSTYLE
 73
     1
 44
1.0
  0
MTEXT
  5
322
330
2D7
100
AcDbEntity
  8
0
 62
     7
100
AcDbMText
 10
165.5
 20
4.247708320617676
 30
0.0
 40
0.0
 41
0.0
 46
0.0
 71
     1
 72
     1
  1
\H3.5;\W0.965;\Q15;\Q15;Формат
  7
KTEXTSTYLE
 73
     1
 44
1.0
  0
MTEXT
  5
323
330
2D7
100
AcDbEntity
  8
0
 62
     7
100
AcDbMText
 10
185.5
 20
4.22667407989502
 30
0.0
 40
0.0
 41
0.0
 46
0.0
 71
     1
 72
     1
  1
\H3.5;\W0.965;\Q15;\Q15;A4
  7
KTEXTSTYLE
 73
     1
 44
1.0
  0
LINE
  5
324
330
2D7
100
AcDbEntity
  8
0
  6
K5LT_BASIC
 62
     5
420
      255
370
    60
100
AcDbLine
 10
20.0
 20
5.0
 30
0.0
 11
20.0
 21
292.0
 31
0.0
  0
LINE
  5
325
330
2D7
100
AcDbEntity
  8
0
  6
K5LT_BASIC
 62
     5
420
      255
370
    60
100
AcDbLine
 10
20.0
 20
292.0
 30
0.0
 11
205.0
 21
292.0
 31
0.0
  0
LINE
  5
326
330
2D7
100
AcDbEntity
  8
0
  6
K5LT_BASIC
 62
     5
420
      255
370
    60
100
AcDbLine
 10
205.0
 20
292.0
 30
0.0
 11
205.0
 21
5.0
 31
0.0
  0
LINE
  5
327
330
2D7
100
AcDbEntity
  8
0
  6
K5LT_BASIC
 62
     5
420
      255
370
    60
100
AcDbLine
 10
205.0
 20
5.0
 30
0.0
 11
20.0
 21
5.0
 31
0.0
  0
LINE
  5
328
330
2D7
100
AcDbEntity
  8
0
  6
K5LT_THIN
 62
     7
370
    18
100
AcDbLine
 10
0.0
 20
0.0
 30
0.0
 11
0.0
 21
297.0
 31
0.0
  0
LINE
  5
329
330
2D7
100
AcDbEntity
  8
0
  6
K5LT_THIN
 62
     7
370
    18
100
AcDbLine
 10
0.0
 20
297.0
 30
0.0
 11
210.0
 21
297.0
 31
0.0
  0
LINE
  5
32A
330
2D7
100
AcDbEntity
  8
0
  6
K5LT_THIN
 62
     7
370
    18
100
AcDbLine
 10
210.0
 20
297.0
 30
0.0
 11
210.0
 21
0.0
 31
0.0
  0
LINE
  5
32B
330
2D7
100
AcDbEntity
  8
0
  6
K5LT_THIN
 62
     7
370
    18
100
AcDbLine
 10
210.0
 20
0.0
 30
0.0
 11
0.0
 21
0.0
 31
0.0
  0
ENDBLK
  5
32D
330
2D7
100
AcDbEntity
  8
0
100
AcDbBlockEnd
  0
ENDSEC
  0
SECTION
  2
ENTITIES
  0
ARC
  5
A6
330
1F
100
AcDbEntity
  8
Системный слой
  6
K5LT_BASIC
 62
     5
420
      255
370
    60
100
AcDbCircle
 10
355.7876844348592
 20
295.0558230281013
 30
0.0
 40
4.25
100
AcDbArc
 50
240.0000000001087
 51
60.00000000010873
  0
ARC
  5
A7
330
1F
100
AcDbEntity
  8
Системный слой
  6
K5LT_BASIC
 62
     5
420
      255
370
    60
100
AcDbCircle
 10
438.1467003348592
 20
295.0558230281013
 30
0.0
 40
4.25
100
AcDbArc
 50
299.9999999998913
 51
119.9999999998913
  0
ARC
  5
A8
330
1F
100
AcDbEntity
  8
Системный слой
  6
K5LT_BASIC
 62
     5
420
      255
370
    60
100
AcDbCircle
 10
396.9671923848592
 20
271.2808230281013
 30
0.0
 40
32.5
100
AcDbArc
 50
118.6478897565159
 51
298.647889756516
  0
ARC
  5
A9
330
1F
100
AcDbEntity
  8
Системный слой
  6
K5LT_BASIC
 62
     5
420
      255
370
    60
100
AcDbCircle
 10
355.7876844348592
 20
295.0558230281013
 30
0.0
 40
4.25
100
AcDbArc
 50
60.00000000010873
 51
240.0000000001087
  0
CIRCLE
  5
AA
330
1F
100
AcDbEntity
  8
Системный слой
  6
K5LT_BASIC
 62
     5
420
      255
370
    60
100
AcDbCircle
 10
469.6224141517592
 20
198.6256012612013
 30
0.0
 40
4.25
  0
CIRCLE
  5
AB
330
1F
100
AcDbEntity
  8
Системный слой
  6
K5LT_BASIC
 62
     5
420
      255
370
    60
100
AcDbCircle
 10
294.2171923848592
 20
271.2808230281013
 30
0.0
 40
4.25
  0
ARC
  5
AC
330
1F
100
AcDbEntity
  8
Системный слой
  6
K5LT_BASIC
 62
     5
420
      255
370
    60
100
AcDbCircle
 10
396.9671923848592
 20
271.2808230281013
 30
0.0
 40
37.5
100
AcDbArc
 50
298.6478897565899
 51
118.6478897565899
  0
ARC
  5
AD
330
1F
100
AcDbEntity
  8
Системный слой
  6
K5LT_BASIC
 62
     5
420
      255
370
    60
100
AcDbCircle
 10
396.9671923848592
 20
223.7308230281013
 30
0.0
 40
4.25
100
AcDbArc
 50
180.0
 51
0.0
  0
CIRCLE
  5
AE
330
1F
100
AcDbEntity
  8
Системный слой
  6
K5LT_BASIC
 62
     5
420
      255
370
    60
100
AcDbCircle
 10
499.7171923848592
 20
271.2808230281012
 30
0.0
 40
4.25
  0
ARC
  5
AF
330
1F
100
AcDbEntity
  8
Системный слой
  6
K5LT_BASIC
 62
     5
420
      255
370
    60
100
AcDbCircle
 10
396.9671923848592
 20
271.2808230281013
 30
0.0
 40
112.757390705
100
AcDbArc
 50
298.6478897565519
 51
118.6478897565518
  0
ARC
  5
B0
330
1F
100
AcDbEntity
  8
Системный слой
  6
K5LT_BASIC
 62
     5
420
      255
370
    60
100
AcDbCircle
 10
396.9671923848592
 20
271.2808230281013
 30
0.0
 40
58.25
100
AcDbArc
 50
118.6478897565523
 51
298.6478897565523
  0
ARC
  5
B1
330
1F
100
AcDbEntity
  8
Системный слой
  6
K5LT_BASIC
 62
     5
420
      255
370
    60
100
AcDbCircle
 10
396.9671923848592
 20
271.2808230281013
 30
0.0
 40
124.25
100
AcDbArc
 50
118.6478897565256
 51
298.6478897565256
  0
CIRCLE
  5
B2
330
1F
100
AcDbEntity
  8
Системный слой
  6
K5LT_BASIC
 62
     5
420
      255
370
    60
100
AcDbCircle
 10
324.3119706179592
 20
343.9360447950013
 30
0.0
 40
4.25
  0
ARC
  5
B3
330
1F
100
AcDbEntity
  8
Системный слой
  6
K5LT_BASIC
 62
     5
420
      255
370
    60
100
AcDbCircle
 10
396.9671923848592
 20
271.2808230281013
 30
0.0
 40
58.25000000000001
100
AcDbArc
 50
298.6478897565523
 51
118.6478897565523
  0
ARC
  5
B4
330
1F
100
AcDbEntity
  8
Системный слой
  6
K5LT_BASIC
 62
     5
420
      255
370
    60
100
AcDbCircle
 10
396.9671923848592
 20
271.2808230281013
 30
0.0
 40
32.5
100
AcDbArc
 50
298.647889756516
 51
118.6478897565159
  0
CIRCLE
  5
B5
330
1F
100
AcDbEntity
  8
Системный слой
  6
K5LT_BASIC
 62
     5
420
      255
370
    60
100
AcDbCircle
 10
396.9671923848592
 20
374.0308230281013
 30
0.0
 40
4.25
  0
ARC
  5
B6
330
1F
100
AcDbEntity
  8
Системный слой
  6
K5LT_BASIC
 62
     5
420
      255
370
    60
100
AcDbCircle
 10
396.9671923848592
 20
223.7308230281013
 30
0.0
 40
4.25
100
AcDbArc
 50
0.0
 51
180.0
  0
ARC
  5
B7
330
1F
100
AcDbEntity
  8
Системный слой
  6
K5LT_BASIC
 62
     5
420
      255
370
    60
100
AcDbCircle
 10
396.9671923848592
 20
271.2808230281013
 30
0.0
 40
118.757390705
100
AcDbArc
 50
298.6478897564348
 51
118.6478897564347
  0
ARC
  5
B8
330
1F
100
AcDbEntity
  8
Системный слой
  6
K5LT_BASIC
 62
     5
420
      255
370
    60
100
AcDbCircle
 10
396.9671923848592
 20
271.2808230281013
 30
0.0
 40
113.757390705
100
AcDbArc
 50
118.6478897565475
 51
298.6478897565476
  0
CIRCLE
  5
B9
330
1F
100
AcDbEntity
  8
Системный слой
  6
K5LT_BASIC
 62
     5
420
      255
370
    60
100
AcDbCircle
 10
469.6224141517592
 20
343.9360447950013
 30
0.0
 40
4.25
  0
ARC
  5
BA
330
1F
100
AcDbEntity
  8
Системный слой
  6
K5LT_BASIC
 62
     5
420
      255
370
    60
100
AcDbCircle
 10
396.9671923848592
 20
271.2808230281013
 30
0.0
 40
112.757390705
100
AcDbArc
 50
118.6478897565518
 51
298.6478897565519
  0
ARC
  5
BB
330
1F
100
AcDbEntity
  8
Системный слой
  6
K5LT_BASIC
 62
     5
420
      255
370
    60
100
AcDbCircle
 10
438.1467003348592
 20
295.0558230281013
 30
0.0
 40
4.25
100
AcDbArc
 50
119.9999999998913
 51
299.9999999998913
  0
CIRCLE
  5
BC
330
1F
100
AcDbEntity
  8
Системный слой
  6
K5LT_BASIC
 62
     5
420
      255
370
    60
100
AcDbCircle
 10
396.9671923848592
 20
271.2808230281013
 30
0.0
 40
38.59191070279999
  0
ARC
  5
BD
330
1F
100
AcDbEntity
  8
Системный слой
  6
K5LT_BASIC
 62
     5
420
      255
370
    60
100
AcDbCircle
 10
396.9671923848592
 20
271.2808230281013
 30
0.0
 40
124.25
100
AcDbArc
 50
298.6478897565256
 51
118.6478897565256
  0
ARC
  5
BE
330
1F
100
AcDbEntity
  8
Системный слой
  6
K5LT_BASIC
 62
     5
420
      255
370
    60
100
AcDbCircle
 10
396.9671923848592
 20
271.2808230281013
 30
0.0
 40
118.757390705
100
AcDbArc
 50
118.6478897564347
 51
298.6478897564348
  0
CIRCLE
  5
BF
330
1F
100
AcDbEntity
  8
Системный слой
  6
K5LT_BASIC
 62
     5
420
      255
370
    60
100
AcDbCircle
 10
324.3119706179592
 20
198.6256012612013
 30
0.0
 40
4.25
  0
CIRCLE
  5
C0
330
1F
100
AcDbEntity
  8
Системный слой
  6
K5LT_BASIC
 62
     5
420
      255
370
    60
100
AcDbCircle
 10
396.9671923848592
 20
168.5308230281013
 30
0.0
 40
4.25
  0
ARC
  5
C1
330
1F
100
AcDbEntity
  8
Системный слой
  6
K5LT_BASIC
 62
     5
420
      255
370
    60
100
AcDbCircle
 10
396.9671923848592
 20
271.2808230281013
 30
0.0
 40
37.5
100
AcDbArc
 50
118.6478897565899
 51
298.6478897565899
  0
ARC
  5
C2
330
1F
100
AcDbEntity
  8
Системный слой
  6
K5LT_BASIC
 62
     5
420
      255
370
    60
100
AcDbCircle
 10
396.9671923848592
 20
271.2808230281013
 30
0.0
 40
113.757390705
100
AcDbArc
 50
298.6478897565476
 51
118.6478897565476
  0
CIRCLE
  5
C3
330
1F
100
AcDbEntity
  8
Системный слой
  6
K5LT_BASIC
 62
     5
420
      255
370
    60
100
AcDbCircle
 10
396.9671923848592
 20
271.2808230281013
 30
0.0
 40
92.0
  0
INSERT
  5
C5
330
1F
100
AcDbEntity
  8
Системный слой
100
AcDbBlockReference
  2
U0
 10
0.0
 20
0.0
 30
0.0
  0
LINE
  5
DA
330
1F
100
AcDbEntity
  8
Системный слой
  6
K5LT_BASIC
 62
     5
420
      255
370
    60
100
AcDbLine
 10
584.0959477807367
 20
238.7808230281013
 30
0.0
 11
584.0959477807367
 21
242.7593897667013
 31
0.0
  0
LINE
  5
DB
330
1F
100
AcDbEntity
  8
Системный слой
  6
K5LT_BASIC
 62
     5
420
      255
370
    60
100
AcDbLine
 10
589.0959477807394
 20
238.3714769572628
 30
0.0
 11
589.095947780737
 21
308.7808230281004
 31
0.0
  0
LINE
  5
DC
330
1F
100
AcDbEntity
  8
Системный слой
  6
K5LT_BASIC
 62
     5
420
      255
370
    60
100
AcDbLine
 10
577.2959477807367
 20
242.7593897667013
 30
0.0
 11
577.2959477807367
 21
303.7808230281013
 31
0.0
  0
LINE
  5
DD
330
1F
100
AcDbEntity
  8
Системный слой
  6
K5LT_BASIC
 62
     5
420
      255
370
    60
100
AcDbLine
 10
592.0959477807367
 20
219.4808230281013
 30
0.0
 11
592.0959477807367
 21
223.7308230281013
 31
0.0
  0
LINE
  5
DE
330
1F
100
AcDbEntity
  8
Системный слой
  6
K5LT_BASIC
 62
     5
420
      255
370
    60
100
AcDbLine
 10
584.0959477807367
 20
333.6860447950013
 30
0.0
 11
584.7959477807367
 21
333.6860447950013
 31
0.0
  0
LINE
  5
DF
330
1F
100
AcDbEntity
  8
Системный слой
  6
K5LT_BASIC
 62
     5
420
      255
370
    60
100
AcDbLine
 10
584.7959477807367
 20
223.7308230281013
 30
0.0
 11
584.7959477807367
 21
227.9808230281013
 31
0.0
  0
LINE
  5
E0
330
1F
100
AcDbEntity
  8
Системный слой
  6
K5LT_BASIC
 62
     5
420
      255
370
    60
100
AcDbLine
 10
577.2959477807367
 20
367.0308230281013
 30
0.0
 11
577.2959477807367
 21
374.0308230281013
 31
0.0
  0
LINE
  5
E1
330
1F
100
AcDbEntity
  8
Системный слой
  6
K5LT_BASIC
 62
     5
420
      255
370
    60
100
AcDbLine
 10
577.2959477807367
 20
223.7308230281013
 30
0.0
 11
577.2959477807367
 21
230.7308230281013
 31
0.0
  0
LINE
  5
E2
330
1F
100
AcDbEntity
  8
Системный слой
  6
K5LT_BASIC
 62
     5
420
      255
370
    60
100
AcDbLine
 10
577.2959477807367
 20
161.5308230281013
 30
0.0
 11
577.2959477807367
 21
168.5308230281013
 31
0.0
  0
LINE
  5
E3
330
1F
100
AcDbEntity
  8
Системный слой
  6
K5LT_BASIC
 62
     5
420
      255
370
    60
100
AcDbLine
 10
584.0959477807367
 20
208.8756012612013
 30
0.0
 11
584.7959477807367
 21
208.8756012612013
 31
0.0
  0
LINE
  5
E4
330
1F
100
AcDbEntity
  8
Системный слой
  6
K5LT_BASIC
 62
     5
420
      255
370
    60
100
AcDbLine
 10
584.0959477807367
 20
242.7593897667013
 30
0.0
 11
584.0959477807367
 21
303.7808230281013
 31
0.0
  0
LINE
  5
E5
330
1F
100
AcDbEntity
  8
Системный слой
  6
K5LT_BASIC
 62
     5
420
      255
370
    60
100
AcDbLine
 10
592.0959477807367
 20
369.7808230281013
 30
0.0
 11
592.0959477807367
 21
378.2808230281013
 31
0.0
  0
LINE
  5
E6
330
1F
100
AcDbEntity
  8
Системный слой
  6
K5LT_BASIC
 62
     5
420
      255
370
    60
100
AcDbLine
 10
592.0959477807367
 20
223.7308230281013
 30
0.0
 11
592.0959477807367
 21
227.9808230281013
 31
0.0
  0
LINE
  5
E7
330
1F
100
AcDbEntity
  8
Системный слой
  6
K5LT_BASIC
 62
     5
420
      255
370
    60
100
AcDbLine
 10
577.2959477807367
 20
374.0308230281013
 30
0.0
 11
577.2959477807367
 21
381.0308230281013
 31
0.0
  0
LINE
  5
E8
330
1F
100
AcDbEntity
  8
Системный слой
  6
K5LT_BASIC
 62
     5
420
      255
370
    60
100
AcDbLine
 10
584.7959477807367
 20
219.4808230281013
 30
0.0
 11
584.7959477807367
 21
223.7308230281013
 31
0.0
  0
LINE
  5
E9
330
1F
100
AcDbEntity
  8
Системный слой
  6
K5LT_BASIC
 62
     5
420
      255
370
    60
100
AcDbLine
 10
577.2959477807367
 20
168.5308230281013
 30
0.0
 11
577.2959477807367
 21
175.5308230281013
 31
0.0
  0
LINE
  5
EA
330
1F
100
AcDbEntity
  8
Системный слой
  6
K5LT_BASIC
 62
     5
420
      255
370
    60
100
AcDbLine
 10
584.7959477807367
 20
378.2808230281013
 30
0.0
 11
584.7959477807367
 21
369.7808230281013
 31
0.0
  0
LINE
  5
EB
330
1F
100
AcDbEntity
  8
Системный слой
  6
K5LT_BASIC
 62
     5
420
      255
370
    60
100
AcDbLine
 10
577.2959477807367
 20
216.7308230281013
 30
0.0
 11
577.2959477807367
 21
223.7308230281013
 31
0.0
  0
LINE
  5
EC
330
1F
100
AcDbEntity
  8
Системный слой
  6
K5LT_BASIC
 62
     5
420
      255
370
    60
100
AcDbLine
 10
584.6959477807367
 20
384.7497521883615
 30
0.0
 11
584.6959477807367
 21
392.3038675021013
 31
0.0
  0
LINE
  5
ED
330
1F
100
AcDbEntity
  8
Системный слой
  6
K5LT_BASIC
 62
     5
420
      255
370
    60
100
AcDbLine
 10
592.0959477807372
 20
232.6889123253026
 30
0.0
 11
592.0959477807372
 21
309.8727337309
 31
0.0
  0
LINE
  5
EE
330
1F
100
AcDbEntity
  8
Системный слой
  6
K5LT_BASIC
 62
     5
420
      255
370
    60
100
AcDbLine
 10
584.6959477807367
 20
150.2577785541013
 30
0.0
 11
584.6959477807367
 21
157.8118938684994
 31
0.0
  0
LINE
  5
EF
330
1F
100
AcDbEntity
  8
Системный слой
  6
K5LT_BASIC
 62
     5
420
      255
370
    60
100
AcDbLine
 10
584.7959477807367
 20
172.7808230281013
 30
0.0
 11
584.7959477807367
 21
164.2808230281013
 31
0.0
  0
LINE
  5
F0
330
1F
100
AcDbEntity
  8
Системный слой
  6
K5LT_BASIC
 62
     5
420
      255
370
    60
100
AcDbLine
 10
592.0959477807367
 20
164.2808230281013
 30
0.0
 11
592.0959477807367
 21
172.7808230281013
 31
0.0
  0
LINE
  5
F1
330
1F
100
AcDbEntity
  8
Системный слой
  6
K5LT_BASIC
 62
     5
420
      255
370
    60
100
AcDbLine
 10
577.2959477807367
 20
238.7808230281013
 30
0.0
 11
577.2959477807367
 21
242.7593897667013
 31
0.0
  0
LINE
  5
F2
330
1F
100
AcDbEntity
  8
Системный слой
  6
K5LT_BASIC
 62
     5
420
      255
370
    60
100
AcDbLine
 10
589.0959477807371
 20
233.7808230281021
 30
0.0
 11
589.0959477807394
 21
238.3714769572628
 31
0.0
  0
INSERT
  5
F4
330
1F
100
AcDbEntity
  8
Системный слой
100
AcDbBlockReference
  2
U1
 10
0.0
 20
0.0
 30
0.0
  0
INSERT
  5
FA
330
1F
100
AcDbEntity
  8
Системный слой
100
AcDbBlockReference
  2
U2
 10
0.0
 20
0.0
 30
0.0
  0
LINE
  5
FF
330
1F
100
AcDbEntity
  8
Системный слой
  6
K5LT_BASIC
 62
     5
420
      255
370
    60
100
AcDbLine
 10
584.7959477807367
 20
179.2808230281013
 30
0.0
 11
584.7959477807367
 21
178.7808230281013
 31
0.0
  0
LINE
  5
100
330
1F
100
AcDbEntity
  8
Системный слой
  6
K5LT_BASIC
 62
     5
420
      255
370
    60
100
AcDbLine
 10
583.122833718329
 20
394.2577785537462
 30
0.0
 11
577.2959477807756
 21
395.5308230282792
 31
0.0
  0
LINE
  5
101
330
1F
100
AcDbEntity
  8
Системный слой
  6
K5LT_BASIC
 62
     5
420
      255
370
    60
100
AcDbLine
 10
584.0959477807367
 20
213.0308230281013
 30
0.0
 11
592.0959477807367
 21
213.0308230281013
 31
0.0
  0
LINE
  5
102
330
1F
100
AcDbEntity
  8
Системный слой
  6
K5LT_BASIC
 62
     5
420
      255
370
    60
100
AcDbLine
 10
592.0959477807367
 20
172.7808230281013
 30
0.0
 11
584.7959477807367
 21
172.7808230281013
 31
0.0
  0
LINE
  5
103
330
1F
100
AcDbEntity
  8
Системный слой
  6
K5LT_BASIC
 62
     5
420
      255
370
    60
100
AcDbLine
 10
584.7959477807367
 20
230.7308230281013
 30
0.0
 11
577.2959477807367
 21
230.7308230281013
 31
0.0
  0
LINE
  5
104
330
1F
100
AcDbEntity
  8
Системный слой
  6
K5LT_BASIC
 62
     5
420
      255
370
    60
100
AcDbLine
 10
592.0959477807367
 20
384.0382137331013
 30
0.0
 11
581.6959477807367
 21
385.0382137331012
 31
0.0
  0
LINE
  5
105
330
1F
100
AcDbEntity
  8
Системный слой
  6
K5LT_BASIC
 62
     5
420
      255
370
    60
100
AcDbLine
 10
577.2959477807367
 20
303.7808230281013
 30
0.0
 11
584.0959477807367
 21
303.7808230281013
 31
0.0
  0
ARC
  5
106
330
1F
100
AcDbEntity
  8
Системный слой
  6
K5LT_BASIC
 62
     5
420
      255
370
    60
100
AcDbCircle
 10
582.6959477807367
 20
150.2577785541013
 30
0.0
 40
2.0
100
AcDbArc
 50
282.3241957229114
 51
77.67580427097384
  0
LINE
  5
107
330
1F
100
AcDbEntity
  8
Системный слой
  6
K5LT_BASIC
 62
     5
420
      255
370
    60
100
AcDbLine
 10
581.6959477807367
 20
390.0382137331013
 30
0.0
 11
583.1228337184543
 21
390.349956450883
 31
0.0
  0
LINE
  5
108
330
1F
100
AcDbEntity
  8
Системный слой
  6
K5LT_BASIC
 62
     5
420
      255
370
    60
100
AcDbLine
 10
584.7959477807367
 20
216.7308230281013
 30
0.0
 11
577.2959477807367
 21
216.7308230281013
 31
0.0
  0
LINE
  5
109
330
1F
100
AcDbEntity
  8
Системный слой
  6
K5LT_BASIC
 62
     5
420
      255
370
    60
100
AcDbLine
 10
584.0959477807367
 20
178.7808230281013
 30
0.0
 11
584.7959477807367
 21
178.7808230281013
 31
0.0
  0
LINE
  5
10A
330
1F
100
AcDbEntity
  8
Системный слой
  6
K5LT_BASIC
 62
     5
420
      255
370
    60
100
AcDbLine
 10
584.7959477807367
 20
219.4808230281013
 30
0.0
 11
592.0959477807367
 21
219.4808230281013
 31
0.0
  0
LINE
  5
10B
330
1F
100
AcDbEntity
  8
Системный слой
  6
K5LT_BASIC
 62
     5
420
      255
370
    60
100
AcDbLine
 10
592.0959477807367
 20
158.5234323231013
 30
0.0
 11
581.6959477807367
 21
157.5234323231014
 31
0.0
  0
LINE
  5
10C
330
1F
100
AcDbEntity
  8
Системный слой
  6
K5LT_BASIC
 62
     5
420
      255
370
    60
100
AcDbLine
 10
592.0959477807367
 20
164.2808230281013
 30
0.0
 11
584.7959477807367
 21
164.2808230281013
 31
0.0
  0
LINE
  5
10D
330
1F
100
AcDbEntity
  8
Системный слой
  6
K5LT_BASIC
 62
     5
420
      255
370
    60
100
AcDbLine
 10
592.0959477807367
 20
172.7808230281013
 30
0.0
 11
592.0959477807367
 21
179.2808230281013
 31
0.0
  0
LINE
  5
10E
330
1F
100
AcDbEntity
  8
Системный слой
  6
K5LT_BASIC
 62
     5
420
      255
370
    60
100
AcDbLine
 10
577.2959477807756
 20
147.0308230279234
 30
0.0
 11
577.2959477807367
 21
161.5308230281013
 31
0.0
  0
LINE
  5
10F
330
1F
100
AcDbEntity
  8
Системный слой
  6
K5LT_BASIC
 62
     5
420
      255
370
    60
100
AcDbLine
 10
592.0959477807367
 20
213.0308230281013
 30
0.0
 11
592.0959477807367
 21
219.4808230281013
 31
0.0
  0
LINE
  5
110
330
1F
100
AcDbEntity
  8
Системный слой
  6
K5LT_BASIC
 62
     5
420
      255
370
    60
100
AcDbLine
 10
584.0959477807367
 20
233.7808230281013
 30
0.0
 11
589.0959477807371
 21
233.7808230281021
 31
0.0
  0
LINE
  5
111
330
1F
100
AcDbEntity
  8
Системный слой
  6
K5LT_BASIC
 62
     5
420
      255
370
    60
100
AcDbLine
 10
584.7959477807367
 20
161.5308230281013
 30
0.0
 11
577.2959477807367
 21
161.5308230281013
 31
0.0
  0
LINE
  5
112
330
1F
100
AcDbEntity
  8
Системный слой
  6
K5LT_BASIC
 62
     5
420
      255
370
    60
100
AcDbLine
 10
592.0959477807372
 20
309.8727337309
 30
0.0
 11
592.0959477807367
 21
329.5308230281013
 31
0.0
  0
LINE
  5
113
330
1F
100
AcDbEntity
  8
Системный слой
  6
K5LT_BASIC
 62
     5
420
      255
370
    60
100
AcDbLine
 10
592.0959477807367
 20
158.5234323231013
 30
0.0
 11
592.0959477807367
 21
164.2808230281013
 31
0.0
  0
LINE
  5
114
330
1F
100
AcDbEntity
  8
Системный слой
  6
K5LT_BASIC
 62
     5
420
      255
370
    60
100
AcDbLine
 10
589.095947780737
 20
308.7808230281004
 30
0.0
 11
592.0959477807372
 21
309.8727337309
 31
0.0
  0
LINE
  5
115
330
1F
100
AcDbEntity
  8
Системный слой
  6
K5LT_BASIC
 62
     5
420
      255
370
    60
100
AcDbLine
 10
584.0959477807367
 20
308.7808230281013
 30
0.0
 11
589.095947780737
 21
308.7808230281004
 31
0.0
  0
LINE
  5
116
330
1F
100
AcDbEntity
  8
Системный слой
  6
K5LT_BASIC
 62
     5
420
      255
370
    60
100
AcDbLine
 10
584.0959477807367
 20
329.5308230281013
 30
0.0
 11
584.0959477807367
 21
363.7808230281013
 31
0.0
  0
LINE
  5
117
330
1F
100
AcDbEntity
  8
Системный слой
  6
K5LT_BASIC
 62
     5
420
      255
370
    60
100
AcDbLine
 10
592.0959477807367
 20
227.9808230281013
 30
0.0
 11
592.0959477807372
 21
232.6889123253026
 31
0.0
  0
LINE
  5
118
330
1F
100
AcDbEntity
  8
Системный слой
  6
K5LT_BASIC
 62
     5
420
      255
370
    60
100
AcDbLine
 10
592.0959477807367
 20
378.2808230281013
 30
0.0
 11
592.0959477807367
 21
384.0382137331013
 31
0.0
  0
LINE
  5
119
330
1F
100
AcDbEntity
  8
Системный слой
  6
K5LT_BASIC
 62
     5
420
      255
370
    60
100
AcDbLine
 10
577.2959477807367
 20
230.7308230281013
 30
0.0
 11
577.2959477807367
 21
238.7808230281013
 31
0.0
  0
LINE
  5
11A
330
1F
100
AcDbEntity
  8
Системный слой
  6
K5LT_BASIC
 62
     5
420
      255
370
    60
100
AcDbLine
 10
584.0959477807367
 20
363.7808230281013
 30
0.0
 11
584.7959477807367
 21
363.7808230281013
 31
0.0
  0
LINE
  5
11B
330
1F
100
AcDbEntity
  8
Системный слой
  6
K5LT_BASIC
 62
     5
420
      255
370
    60
100
AcDbLine
 10
584.7959477807367
 20
363.7808230281013
 30
0.0
 11
584.7959477807367
 21
363.2808230281013
 31
0.0
  0
LINE
  5
11C
330
1F
100
AcDbEntity
  8
Системный слой
  6
K5LT_BASIC
 62
     5
420
      255
370
    60
100
AcDbLine
 10
584.0959477807367
 20
233.7808230281013
 30
0.0
 11
584.0959477807367
 21
238.7808230281013
 31
0.0
  0
LINE
  5
11D
330
1F
100
AcDbEntity
  8
Системный слой
  6
K5LT_BASIC
 62
     5
420
      255
370
    60
100
AcDbLine
 10
577.2959477807367
 20
381.0308230281013
 30
0.0
 11
577.2959477807756
 21
395.5308230282792
 31
0.0
  0
LINE
  5
11E
330
1F
100
AcDbEntity
  8
Системный слой
  6
K5LT_BASIC
 62
     5
420
      255
370
    60
100
AcDbLine
 10
589.0959477807371
 20
233.7808230281021
 30
0.0
 11
592.0959477807372
 21
232.6889123253026
 31
0.0
  0
LINE
  5
11F
330
1F
100
AcDbEntity
  8
Системный слой
  6
K5LT_BASIC
 62
     5
420
      255
370
    60
100
AcDbLine
 10
584.0959477807367
 20
329.5308230281013
 30
0.0
 11
592.0959477807367
 21
329.5308230281013
 31
0.0
  0
LINE
  5
120
330
1F
100
AcDbEntity
  8
Системный слой
  6
K5LT_BASIC
 62
     5
420
      255
370
    60
100
AcDbLine
 10
584.7959477807367
 20
381.0308230281013
 30
0.0
 11
584.7959477807367
 21
378.2808230281013
 31
0.0
  0
LINE
  5
121
330
1F
100
AcDbEntity
  8
Системный слой
  6
K5LT_BASIC
 62
     5
420
      255
370
    60
100
AcDbLine
 10
592.0959477807367
 20
378.2808230281013
 30
0.0
 11
584.7959477807367
 21
378.2808230281013
 31
0.0
  0
LINE
  5
122
330
1F
100
AcDbEntity
  8
Системный слой
  6
K5LT_BASIC
 62
     5
420
      255
370
    60
100
AcDbLine
 10
581.6959477807367
 20
385.0382137331012
 30
0.0
 11
581.6959477807367
 21
390.0382137331013
 31
0.0
  0
LINE
  5
123
330
1F
100
AcDbEntity
  8
Системный слой
  6
K5LT_BASIC
 62
     5
420
      255
370
    60
100
AcDbLine
 10
577.2959477807367
 20
303.7808230281013
 30
0.0
 11
577.2959477807367
 21
367.0308230281013
 31
0.0
  0
LINE
  5
124
330
1F
100
AcDbEntity
  8
Системный слой
  6
K5LT_BASIC
 62
     5
420
      255
370
    60
100
AcDbLine
 10
584.0959477807367
 20
303.7808230281013
 30
0.0
 11
584.0959477807367
 21
308.7808230281013
 31
0.0
  0
LINE
  5
125
330
1F
100
AcDbEntity
  8
Системный слой
  6
K5LT_BASIC
 62
     5
420
      255
370
    60
100
AcDbLine
 10
584.7959477807367
 20
164.2808230281013
 30
0.0
 11
584.7959477807367
 21
161.5308230281013
 31
0.0
  0
LINE
  5
126
330
1F
100
AcDbEntity
  8
Системный слой
  6
K5LT_BASIC
 62
     5
420
      255
370
    60
100
AcDbLine
 10
584.7959477807367
 20
175.5308230281013
 30
0.0
 11
577.2959477807367
 21
175.5308230281013
 31
0.0
  0
LINE
  5
127
330
1F
100
AcDbEntity
  8
Системный слой
  6
K5LT_BASIC
 62
     5
420
      255
370
    60
100
AcDbLine
 10
581.6959477807367
 20
152.5234323231013
 30
0.0
 11
581.6959477807367
 21
157.5234323231014
 31
0.0
  0
LINE
  5
128
330
1F
100
AcDbEntity
  8
Системный слой
  6
K5LT_BASIC
 62
     5
420
      255
370
    60
100
AcDbLine
 10
577.2959477807367
 20
175.5308230281013
 30
0.0
 11
577.2959477807367
 21
216.7308230281013
 31
0.0
  0
LINE
  5
129
330
1F
100
AcDbEntity
  8
Системный слой
  6
K5LT_BASIC
 62
     5
420
      255
370
    60
100
AcDbLine
 10
584.7959477807367
 20
219.4808230281013
 30
0.0
 11
584.7959477807367
 21
216.7308230281013
 31
0.0
  0
ARC
  5
12A
330
1F
100
AcDbEntity
  8
Системный слой
  6
K5LT_BASIC
 62
     5
420
      255
370
    60
100
AcDbCircle
 10
582.6959477807367
 20
392.3038675021013
 30
0.0
 40
2.0
100
AcDbArc
 50
282.3241957290263
 51
77.67580427708867
  0
LINE
  5
12B
330
1F
100
AcDbEntity
  8
Системный слой
  6
K5LT_BASIC
 62
     5
420
      255
370
    60
100
AcDbLine
 10
584.7959477807367
 20
369.7808230281013
 30
0.0
 11
584.7959477807367
 21
367.0308230281013
 31
0.0
  0
LINE
  5
12C
330
1F
100
AcDbEntity
  8
Системный слой
  6
K5LT_BASIC
 62
     5
420
      255
370
    60
100
AcDbLine
 10
584.7959477807367
 20
175.5308230281013
 30
0.0
 11
584.7959477807367
 21
172.7808230281013
 31
0.0
  0
LINE
  5
12D
330
1F
100
AcDbEntity
  8
Системный слой
  6
K5LT_BASIC
 62
     5
420
      255
370
    60
100
AcDbLine
 10
592.0959477807367
 20
363.2808230281013
 30
0.0
 11
592.0959477807367
 21
369.7808230281013
 31
0.0
  0
LINE
  5
12E
330
1F
100
AcDbEntity
  8
Системный слой
  6
K5LT_BASIC
 62
     5
420
      255
370
    60
100
AcDbLine
 10
584.7959477807367
 20
230.7308230281013
 30
0.0
 11
584.7959477807367
 21
227.9808230281013
 31
0.0
  0
LINE
  5
12F
330
1F
100
AcDbEntity
  8
Системный слой
  6
K5LT_BASIC
 62
     5
420
      255
370
    60
100
AcDbLine
 10
581.6959477807367
 20
152.5234323231013
 30
0.0
 11
583.1228337184543
 21
152.2116896053195
 31
0.0
  0
LINE
  5
130
330
1F
100
AcDbEntity
  8
Системный слой
  6
K5LT_BASIC
 62
     5
420
      255
370
    60
100
AcDbLine
 10
584.0959477807367
 20
178.7808230281013
 30
0.0
 11
584.0959477807367
 21
213.0308230281013
 31
0.0
  0
LINE
  5
131
330
1F
100
AcDbEntity
  8
Системный слой
  6
K5LT_BASIC
 62
     5
420
      255
370
    60
100
AcDbLine
 10
584.7959477807367
 20
363.2808230281013
 30
0.0
 11
592.0959477807367
 21
363.2808230281013
 31
0.0
  0
LINE
  5
132
330
1F
100
AcDbEntity
  8
Системный слой
  6
K5LT_BASIC
 62
     5
420
      255
370
    60
100
AcDbLine
 10
577.2959477807367
 20
238.7808230281013
 30
0.0
 11
584.0959477807367
 21
238.7808230281013
 31
0.0
  0
LINE
  5
133
330
1F
100
AcDbEntity
  8
Системный слой
  6
K5LT_BASIC
 62
     5
420
      255
370
    60
100
AcDbLine
 10
584.7959477807367
 20
367.0308230281013
 30
0.0
 11
577.2959477807367
 21
367.0308230281013
 31
0.0
  0
LINE
  5
134
330
1F
100
AcDbEntity
  8
Системный слой
  6
K5LT_BASIC
 62
     5
420
      255
370
    60
100
AcDbLine
 10
584.7959477807367
 20
179.2808230281013
 30
0.0
 11
592.0959477807367
 21
179.2808230281013
 31
0.0
  0
LINE
  5
135
330
1F
100
AcDbEntity
  8
Системный слой
  6
K5LT_BASIC
 62
     5
420
      255
370
    60
100
AcDbLine
 10
584.7959477807367
 20
381.0308230281013
 30
0.0
 11
577.2959477807367
 21
381.0308230281013
 31
0.0
  0
LINE
  5
136
330
1F
100
AcDbEntity
  8
Системный слой
  6
K5LT_BASIC
 62
     5
420
      255
370
    60
100
AcDbLine
 10
592.0959477807367
 20
369.7808230281013
 30
0.0
 11
584.7959477807367
 21
369.7808230281013
 31
0.0
  0
LINE
  5
137
330
1F
100
AcDbEntity
  8
Системный слой
  6
K5LT_BASIC
 62
     5
420
      255
370
    60
100
AcDbLine
 10
583.122833718329
 20
148.3038675024564
 30
0.0
 11
577.2959477807756
 21
147.0308230279234
 31
0.0
  0
LINE
  5
138
330
1F
100
AcDbEntity
  8
Системный слой
  6
K5LT_BASIC
 62
     5
420
      255
370
    60
100
AcDbLine
 10
584.7959477807367
 20
227.9808230281013
 30
0.0
 11
592.0959477807367
 21
227.9808230281013
 31
0.0
  0
HATCH
  5
139
330
1F
100
AcDbEntity
  8
Системный слой
 62
     7
100
AcDbHatch
 10
0.0
 20
0.0
 30
0.0
210
0.0
220
0.0
230
1.0
  2
Металл
 70
     0
 71
     0
 91
        5
 92
        1
 93
       13
 72
     1
 10
592.0959477807367
 20
158.5234323231013
 11
592.0959477807367
 21
164.2808230281013
 72
     1
 10
592.0959477807367
 20
164.2808230281013
 11
584.7959477807367
 21
164.2808230281013
 72
     1
 10
584.7959477807367
 20
164.2808230281013
 11
584.7959477807367
 21
161.5308230281013
 72
     1
 10
584.7959477807367
 20
161.5308230281013
 11
577.2959477807367
 21
161.5308230281013
 72
     1
 10
577.2959477807367
 20
161.5308230281013
 11
577.2959477807367
 21
147.0308230281013
 72
     1
 10
577.2959477807894
 20
147.03082302774
 11
583.1228337184198
 21
148.3038675021041
 72
     1
 10
583.1228337182515
 20
148.3038675028116
 11
584.493659209099
 21
149.3812891814698
 72
     1
 10
584.493659209099
 20
149.3812891814698
 11
584.4982240143911
 21
151.1248427833279
 72
     1
 10
584.4982240143911
 20
151.1248427833279
 11
583.1330588821061
 21
152.2094275709738
 72
     1
 10
583.1330588821061
 20
152.2094275709738
 11
583.12283371846
 21
152.2116896053454
 72
     1
 10
583.1228337185586
 20
152.2116896052696
 11
581.6959477807367
 21
152.5234323231012
 72
     1
 10
581.6959477807367
 20
152.5234323231013
 11
581.6959477807367
 21
157.5234323231013
 72
     1
 10
581.6959477807097
 20
157.5234323230988
 11
592.0959477807367
 21
158.5234323231012
 97
        0
 92
        1
 93
       14
 72
     1
 10
592.0959477807367
 20
172.7808230281013
 11
592.0959477807367
 21
179.2808230281013
 72
     1
 10
592.0959477807367
 20
179.2808230281013
 11
584.7959477807367
 21
179.2808230281013
 72
     1
 10
584.7959477807367
 20
179.2808230281013
 11
584.7959477807367
 21
178.7808230281007
 72
     1
 10
584.7959477807367
 20
178.7808230281013
 11
584.0959477807367
 21
178.7808230281013
 72
     1
 10
584.0959477807367
 20
178.7808230281013
 11
584.0959477807367
 21
213.0308230281013
 72
     1
 10
584.0959477807367
 20
213.0308230281013
 11
592.0959477807367
 21
213.0308230281013
 72
     1
 10
592.0959477807367
 20
213.0308230281013
 11
592.0959477807367
 21
219.4808230281013
 72
     1
 10
592.0959477807367
 20
219.4808230281013
 11
584.7959477807367
 21
219.4808230281013
 72
     1
 10
584.7959477807367
 20
219.4808230281013
 11
584.7959477807367
 21
216.7308230281013
 72
     1
 10
584.7959477807367
 20
216.7308230281013
 11
577.2959477807367
 21
216.7308230281013
 72
     1
 10
577.2959477807367
 20
216.7308230281013
 11
577.2959477807367
 21
175.5308230281013
 72
     1
 10
577.2959477807367
 20
175.5308230281013
 11
584.7959477807367
 21
175.5308230281013
 72
     1
 10
584.7959477807367
 20
175.5308230281013
 11
584.7959477807367
 21
172.7808230281013
 72
     1
 10
584.7959477807367
 20
172.7808230281013
 11
592.0959477807367
 21
172.7808230281013
 97
        0
 92
        1
 93
       15
 72
     1
 10
592.0959477807367
 20
363.2808230281013
 11
592.0959477807367
 21
369.7808230281016
 72
     1
 10
592.0959477807367
 20
369.7808230281013
 11
584.7959477807367
 21
369.7808230281013
 72
     1
 10
584.7959477807367
 20
369.7808230281013
 11
584.7959477807367
 21
367.0308230281013
 72
     1
 10
584.7959477807367
 20
367.0308230281013
 11
577.2959477807367
 21
367.0308230281013
 72
     1
 10
577.2959477807367
 20
367.0308230281011
 11
577.2959477807367
 21
303.7808230281013
 72
     1
 10
577.2959477807367
 20
303.7808230281013
 11
584.0959477807367
 21
303.7808230281013
 72
     1
 10
584.0959477807367
 20
303.7808230281013
 11
584.0959477807367
 21
308.7808230281013
 72
     1
 10
584.0959477807367
 20
308.7808230281013
 11
589.0959477807367
 21
308.7808230281013
 72
     1
 10
589.0959477807372
 20
308.7808230280996
 11
592.0959477807423
 21
309.8727337309004
 72
     1
 10
592.0959477807367
 20
309.8727337309012
 11
592.0959477807367
 21
329.5308230281013
 72
     1
 10
592.0959477807367
 20
329.5308230281013
 11
584.0959477807367
 21
329.5308230281013
 72
     1
 10
584.0959477807367
 20
329.5308230281013
 11
584.0959477807367
 21
363.7808230281014
 72
     1
 10
584.0959477807367
 20
363.7808230281013
 11
584.7959477807367
 21
363.7808230281013
 72
     1
 10
584.7959477807367
 20
363.7808230281013
 11
584.7959477807367
 21
363.2808230281013
 72
     1
 10
584.7959477807367
 20
363.2808230281013
 11
592.0959477807367
 21
363.2808230281013
 97
        0
 92
        1
 93
       13
 72
     1
 10
592.0959477807367
 20
378.280823028101
 11
592.0959477807367
 21
384.0382137331013
 72
     1
 10
592.0959477807367
 20
384.0382137331013
 11
581.6959477807097
 21
385.0382137331038
 72
     1
 10
581.6959477807367
 20
385.0382137331013
 11
581.6959477807367
 21
390.0382137331013
 72
     1
 10
581.6959477807367
 20
390.0382137331013
 11
583.1228337185586
 21
390.349956450933
 72
     1
 10
583.12283371846
 20
390.3499564508571
 11
584.4936592091925
 21
391.4273781296617
 72
     1
 10
584.4936592091925
 20
391.4273781296617
 11
584.4982240142986
 21
393.1709317315203
 72
     1
 10
584.4982240142986
 20
393.1709317315203
 11
583.1330588818977
 21
394.2555165190205
 72
     1
 10
583.1330588818977
 20
394.2555165190205
 11
583.1228337182515
 21
394.257778553391
 72
     1
 10
583.1228337184198
 20
394.2577785540984
 11
577.2959477807894
 21
395.5308230284626
 72
     1
 10
577.2959477807367
 20
395.5308230281013
 11
577.2959477807367
 21
381.0308230281015
 72
     1
 10
577.2959477807367
 20
381.0308230281013
 11
584.7959477807367
 21
381.0308230281013
 72
     1
 10
584.7959477807367
 20
381.0308230281013
 11
584.7959477807367
 21
378.2808230281013
 72
     1
 10
584.7959477807367
 20
378.2808230281013
 11
592.0959477807367
 21
378.2808230281013
 97
        0
 92
        1
 93
        9
 72
     1
 10
577.2959477807367
 20
238.7808230281013
 11
577.2959477807367
 21
230.7308230281012
 72
     1
 10
577.2959477807367
 20
230.7308230281013
 11
584.7959477807367
 21
230.7308230281013
 72
     1
 10
584.7959477807367
 20
230.7308230281013
 11
584.7959477807367
 21
227.9808230281013
 72
     1
 10
584.7959477807367
 20
227.9808230281013
 11
592.0959477807367
 21
227.9808230281013
 72
     1
 10
592.0959477807367
 20
227.9808230281013
 11
592.0959477807367
 21
232.6889123253013
 72
     1
 10
592.0959477807424
 20
232.6889123253021
 11
589.0959477807373
 21
233.780823028103
 72
     1
 10
589.0959477807367
 20
233.7808230281013
 11
584.0959477807367
 21
233.7808230281013
 72
     1
 10
584.0959477807367
 20
233.7808230281013
 11
584.0959477807367
 21
238.7808230281013
 72
     1
 10
584.0959477807367
 20
238.7808230281013
 11
577.2959477807367
 21
238.7808230281013
 97
        0
 75
     0
 76
     0
 52
45.0
 41
1.0
 77
     0
 78
     1
 53
45.0
 43
0.0
 44
0.0
 45
-1.414213562373095
 46
1.414213562373095
 79
     0
 98
        0
  0
INSERT
  5
13B
330
1F
100
AcDbEntity
  8
Системный слой
100
AcDbBlockReference
  2
U3
 10
0.0
 20
0.0
 30
0.0
  0
ARC
  5
140
330
1F
100
AcDbEntity
  8
Системный слой
  6
K5LT_BASIC
 62
     5
420
      255
370
    60
100
AcDbCircle
 10
713.7376212113888
 20
198.6256012612013
 30
0.0
 40
7.0
100
AcDbArc
 50
134.9999999999999
 51
314.9999999999999
  0
ARC
  5
141
330
1F
100
AcDbEntity
  8
Системный слой
  6
K5LT_BASIC
 62
     5
420
      255
370
    60
100
AcDbCircle
 10
745.2133350282888
 20
295.0558230281013
 30
0.0
 40
7.000000000000001
100
AcDbArc
 50
60.00000000003656
 51
240.0000000000366
  0
ARC
  5
142
330
1F
100
AcDbEntity
  8
Системный слой
  6
K5LT_BASIC
 62
     5
420
      255
370
    60
100
AcDbCircle
 10
827.5723509282889
 20
295.0558230281013
 30
0.0
 40
7.000000000000001
100
AcDbArc
 50
299.9999999999635
 51
119.9999999999634
  0
ARC
  5
143
330
1F
100
AcDbEntity
  8
Системный слой
  6
K5LT_BASIC
 62
     5
420
      255
370
    60
100
AcDbCircle
 10
889.1428429782889
 20
271.2808230281013
 30
0.0
 40
7.0
100
AcDbArc
 50
90.0
 51
270.0
  0
ARC
  5
144
330
1F
100
AcDbEntity
  8
Системный слой
  6
K5LT_BASIC
 62
     5
420
      255
370
    60
100
AcDbCircle
 10
745.2133350282888
 20
295.0558230281013
 30
0.0
 40
7.000000000000001
100
AcDbArc
 50
240.0000000000366
 51
60.00000000003656
  0
ARC
  5
145
330
1F
100
AcDbEntity
  8
Системный слой
  6
K5LT_BASIC
 62
     5
420
      255
370
    60
100
AcDbCircle
 10
786.3928429782889
 20
271.2808230281013
 30
0.0
 40
32.5
100
AcDbArc
 50
61.35211024348408
 51
241.3521102434841
  0
ARC
  5
146
330
1F
100
AcDbEntity
  8
Системный слой
  6
K5LT_BASIC
 62
     5
420
      255
370
    60
100
AcDbCircle
 10
859.0480647451889
 20
198.6256012612013
 30
0.0
 40
7.0
100
AcDbArc
 50
225.0
 51
45.0
  0
ARC
  5
147
330
1F
100
AcDbEntity
  8
Системный слой
  6
K5LT_BASIC
 62
     5
420
      255
370
    60
100
AcDbCircle
 10
859.0480647451889
 20
343.9360447950013
 30
0.0
 40
7.0
100
AcDbArc
 50
134.9999999999999
 51
314.9999999999999
  0
ARC
  5
148
330
1F
100
AcDbEntity
  8
Системный слой
  6
K5LT_BASIC
 62
     5
420
      255
370
    60
100
AcDbCircle
 10
786.3928429782889
 20
271.2808230281013
 30
0.0
 40
124.25
100
AcDbArc
 50
241.3521102434744
 51
61.35211024347441
  0
CIRCLE
  5
149
330
1F
100
AcDbEntity
  8
Системный слой
  6
K5LT_BASIC
 62
     5
420
      255
370
    60
100
AcDbCircle
 10
859.0480647451889
 20
343.9360447950013
 30
0.0
 40
4.25
  0
ARC
  5
14A
330
1F
100
AcDbEntity
  8
Системный слой
  6
K5LT_BASIC
 62
     5
420
      255
370
    60
100
AcDbCircle
 10
786.3928429782889
 20
223.7308230281013
 30
0.0
 40
4.25
100
AcDbArc
 50
0.0
 51
180.0
  0
ARC
  5
14B
330
1F
100
AcDbEntity
  8
Системный слой
  6
K5LT_BASIC
 62
     5
420
      255
370
    60
100
AcDbCircle
 10
859.0480647451889
 20
198.6256012612013
 30
0.0
 40
7.0
100
AcDbArc
 50
45.0
 51
225.0
  0
ARC
  5
14C
330
1F
100
AcDbEntity
  8
Системный слой
  6
K5LT_BASIC
 62
     5
420
      255
370
    60
100
AcDbCircle
 10
786.3928429782889
 20
374.0308230281013
 30
0.0
 40
7.0
100
AcDbArc
 50
180.0
 51
0.0
  0
ARC
  5
14D
330
1F
100
AcDbEntity
  8
Системный слой
  6
K5LT_BASIC
 62
     5
420
      255
370
    60
100
AcDbCircle
 10
786.3928429782889
 20
223.7308230281013
 30
0.0
 40
7.0
100
AcDbArc
 50
0.0
 51
180.0
  0
ARC
  5
14E
330
1F
100
AcDbEntity
  8
Системный слой
  6
K5LT_BASIC
 62
     5
420
      255
370
    60
100
AcDbCircle
 10
889.1428429782889
 20
271.2808230281013
 30
0.0
 40
7.0
100
AcDbArc
 50
270.0
 51
90.0
  0
CIRCLE
  5
14F
330
1F
100
AcDbEntity
  8
Системный слой
  6
K5LT_BASIC
 62
     5
420
      255
370
    60
100
AcDbCircle
 10
683.6428429782889
 20
271.2808230281012
 30
0.0
 40
4.25
  0
ARC
  5
150
330
1F
100
AcDbEntity
  8
Системный слой
  6
K5LT_BASIC
 62
     5
420
      255
370
    60
100
AcDbCircle
 10
786.3928429782889
 20
168.5308230281013
 30
0.0
 40
7.0
100
AcDbArc
 50
180.0
 51
0.0
  0
CIRCLE
  5
151
330
1F
100
AcDbEntity
  8
Системный слой
  6
K5LT_BASIC
 62
     5
420
      255
370
    60
100
AcDbCircle
 10
713.7376212113888
 20
343.9360447950013
 30
0.0
 40
4.25
  0
ARC
  5
152
330
1F
100
AcDbEntity
  8
Системный слой
  6
K5LT_BASIC
 62
     5
420
      255
370
    60
100
AcDbCircle
 10
683.6428429782889
 20
271.2808230281013
 30
0.0
 40
7.0
100
AcDbArc
 50
270.0
 51
90.0
  0
ARC
  5
153
330
1F
100
AcDbEntity
  8
Системный слой
  6
K5LT_BASIC
 62
     5
420
      255
370
    60
100
AcDbCircle
 10
786.3928429782889
 20
374.0308230281013
 30
0.0
 40
7.0
100
AcDbArc
 50
0.0
 51
180.0
  0
ARC
  5
154
330
1F
100
AcDbEntity
  8
Системный слой
  6
K5LT_BASIC
 62
     5
420
      255
370
    60
100
AcDbCircle
 10
859.0480647451889
 20
343.9360447950013
 30
0.0
 40
7.0
100
AcDbArc
 50
315.0
 51
134.9999999999999
  0
ARC
  5
155
330
1F
100
AcDbEntity
  8
Системный слой
  6
K5LT_BASIC
 62
     5
420
      255
370
    60
100
AcDbCircle
 10
713.7376212113888
 20
343.9360447950013
 30
0.0
 40
7.0
100
AcDbArc
 50
45.0
 51
225.0
  0
ARC
  5
156
330
1F
100
AcDbEntity
  8
Системный слой
  6
K5LT_BASIC
 62
     5
420
      255
370
    60
100
AcDbCircle
 10
786.3928429782889
 20
223.7308230281013
 30
0.0
 40
4.25
100
AcDbArc
 50
180.0
 51
0.0
  0
ARC
  5
157
330
1F
100
AcDbEntity
  8
Системный слой
  6
K5LT_BASIC
 62
     5
420
      255
370
    60
100
AcDbCircle
 10
786.3928429782889
 20
168.5308230281013
 30
0.0
 40
7.0
100
AcDbArc
 50
0.0
 51
180.0
  0
CIRCLE
  5
158
330
1F
100
AcDbEntity
  8
Системный слой
  6
K5LT_BASIC
 62
     5
420
      255
370
    60
100
AcDbCircle
 10
786.3928429782889
 20
374.0308230281013
 30
0.0
 40
4.25
  0
ARC
  5
159
330
1F
100
AcDbEntity
  8
Системный слой
  6
K5LT_BASIC
 62
     5
420
      255
370
    60
100
AcDbCircle
 10
683.6428429782889
 20
271.2808230281013
 30
0.0
 40
7.0
100
AcDbArc
 50
90.0
 51
270.0
  0
CIRCLE
  5
15A
330
1F
100
AcDbEntity
  8
Системный слой
  6
K5LT_BASIC
 62
     5
420
      255
370
    60
100
AcDbCircle
 10
859.0480647451889
 20
198.6256012612013
 30
0.0
 40
4.25
  0
ARC
  5
15B
330
1F
100
AcDbEntity
  8
Системный слой
  6
K5LT_BASIC
 62
     5
420
      255
370
    60
100
AcDbCircle
 10
713.7376212113888
 20
198.6256012612013
 30
0.0
 40
7.0
100
AcDbArc
 50
315.0
 51
134.9999999999999
  0
CIRCLE
  5
15C
330
1F
100
AcDbEntity
  8
Системный слой
  6
K5LT_BASIC
 62
     5
420
      255
370
    60
100
AcDbCircle
 10
713.7376212113888
 20
198.6256012612013
 30
0.0
 40
4.25
  0
ARC
  5
15D
330
1F
100
AcDbEntity
  8
Системный слой
  6
K5LT_BASIC
 62
     5
420
      255
370
    60
100
AcDbCircle
 10
786.3928429782889
 20
223.7308230281013
 30
0.0
 40
7.0
100
AcDbArc
 50
180.0
 51
0.0
  0
ARC
  5
15E
330
1F
100
AcDbEntity
  8
Системный слой
  6
K5LT_BASIC
 62
     5
420
      255
370
    60
100
AcDbCircle
 10
827.5723509282889
 20
295.0558230281013
 30
0.0
 40
4.25
100
AcDbArc
 50
119.9999999998913
 51
299.9999999998913
  0
ARC
  5
15F
330
1F
100
AcDbEntity
  8
Системный слой
  6
K5LT_BASIC
 62
     5
420
      255
370
    60
100
AcDbCircle
 10
786.3928429782889
 20
271.2808230281013
 30
0.0
 40
124.25
100
AcDbArc
 50
61.35211024347441
 51
241.3521102434744
  0
ARC
  5
160
330
1F
100
AcDbEntity
  8
Системный слой
  6
K5LT_BASIC
 62
     5
420
      255
370
    60
100
AcDbCircle
 10
827.5723509282889
 20
295.0558230281013
 30
0.0
 40
4.25
100
AcDbArc
 50
299.9999999998913
 51
119.9999999998913
  0
ARC
  5
161
330
1F
100
AcDbEntity
  8
Системный слой
  6
K5LT_BASIC
 62
     5
420
      255
370
    60
100
AcDbCircle
 10
745.2133350282888
 20
295.0558230281013
 30
0.0
 40
4.25
100
AcDbArc
 50
60.00000000010873
 51
240.0000000001087
  0
CIRCLE
  5
162
330
1F
100
AcDbEntity
  8
Системный слой
  6
K5LT_BASIC
 62
     5
420
      255
370
    60
100
AcDbCircle
 10
786.3928429782889
 20
168.5308230281013
 30
0.0
 40
4.249999999999999
  0
ARC
  5
163
330
1F
100
AcDbEntity
  8
Системный слой
  6
K5LT_BASIC
 62
     5
420
      255
370
    60
100
AcDbCircle
 10
786.3928429782889
 20
271.2808230281013
 30
0.0
 40
32.5
100
AcDbArc
 50
241.3521102434841
 51
61.35211024348408
  0
ARC
  5
164
330
1F
100
AcDbEntity
  8
Системный слой
  6
K5LT_BASIC
 62
     5
420
      255
370
    60
100
AcDbCircle
 10
745.2133350282888
 20
295.0558230281013
 30
0.0
 40
4.25
100
AcDbArc
 50
240.0000000001087
 51
60.00000000010873
  0
ARC
  5
165
330
1F
100
AcDbEntity
  8
Системный слой
  6
K5LT_BASIC
 62
     5
420
      255
370
    60
100
AcDbCircle
 10
713.7376212113888
 20
343.9360447950013
 30
0.0
 40
7.0
100
AcDbArc
 50
225.0
 51
45.0
  0
ARC
  5
166
330
1F
100
AcDbEntity
  8
Системный слой
  6
K5LT_BASIC
 62
     5
420
      255
370
    60
100
AcDbCircle
 10
827.5723509282889
 20
295.0558230281013
 30
0.0
 40
7.000000000000001
100
AcDbArc
 50
119.9999999999634
 51
299.9999999999635
  0
CIRCLE
  5
167
330
1F
100
AcDbEntity
  8
Системный слой
  6
K5LT_BASIC
 62
     5
420
      255
370
    60
100
AcDbCircle
 10
889.1428429782889
 20
271.2808230281013
 30
0.0
 40
4.25
  0
CIRCLE
  5
169
330
1F
100
AcDbEntity
  8
Системный слой
  6
K5LT_AXLED
 62
    30
420
 16744448
370
    18
100
AcDbCircle
 10
786.3928429782889
 20
271.2808230281013
 30
0.0
 40
47.55000000004325
  0
CIRCLE
  5
16A
330
1F
100
AcDbEntity
  8
Системный слой
  6
K5LT_AXLED
 62
    30
420
 16744448
370
    18
100
AcDbCircle
 10
786.3928429782889
 20
271.2808230281013
 30
0.0
 40
102.7499999999749
  0
DIMENSION
  5
181
330
1F
100
AcDbEntity
  8
Системный слой
 62
     7
100
AcDbDimension
280
     0
  2
D0
 10
424.4590466690174
 20
253.9473886304231
 30
0.0
 11
233.8251000350763
 21
374.140845710325
 31
0.0
 70
   163
 71
     5
 42
-1.0
 73
     0
 74
     0
 75
     0
  3
KDIMSTYLE (1.00)
100
AcDbDiametricDimension
 15
369.475338100701
 25
288.6142574257794
 35
0.0
 40
0.0
1001
ACAD
1000
DSTYLE
1002
{
1070
   178
1070
     7
1070
   289
1070
     2
1070
   344
1005
47
1070
   343
1005
47
1070
   283
1070
     1
1070
     3
1000
\H5.0;\W0.965;\Q15;∅<>
1002
}
  0
DIMENSION
  5
196
330
1F
100
AcDbEntity
  8
Системный слой
 62
     7
100
AcDbDimension
280
     0
  2
D1
 10
425.1384518115593
 20
246.5294565544384
 30
0.0
 11
251.2837500161372
 21
399.2788019823338
 31
0.0
 70
   163
 71
     5
 42
-1.0
 73
     0
 74
     0
 75
     0
  3
KDIMSTYLE (1.00)
100
AcDbDiametricDimension
 15
368.7959329581591
 25
296.0321895017642
 35
0.0
 40
0.0
1001
ACAD
1000
DSTYLE
1002
{
1070
   178
1070
     7
1070
   289
1070
     2
1070
   344
1005
47
1070
   343
1005
47
1070
   283
1070
     1
1070
     3
1000
\H5.0;\W0.965;\Q15;∅<>
1002
}
  0
DIMENSION
  5
1AB
330
1F
100
AcDbEntity
  8
Системный слой
 62
     7
100
AcDbDimension
280
     0
  2
D2
 10
435.7348078166864
 20
227.8051459922004
 30
0.0
 11
272.2153210712133
 21
411.1829554250205
 31
0.0
 70
   163
 71
     5
 42
-1.0
 73
     0
 74
     0
 75
     0
  3
KDIMSTYLE (1.00)
100
AcDbDiametricDimension
 15
358.1995769530321
 25
314.7565000640021
 35
0.0
 40
0.0
1001
ACAD
1000
DSTYLE
1002
{
1070
   178
1070
     7
1070
   289
1070
     2
1070
   344
1005
47
1070
   343
1005
47
1070
   283
1070
     1
1070
     3
1000
\H5.0;\W0.965;\Q15;∅<>
1002
}
  0
DIMENSION
  5
1BE
330
1F
100
AcDbEntity
  8
Системный слой
 62
     7
100
AcDbDimension
280
     0
  2
D3
 10
449.3191581107552
 20
195.6285151675038
 30
0.0
 11
294.5334383067378
 21
419.3048712445286
 31
0.0
 70
   163
 71
     5
 42
-1.0
 73
     0
 74
     0
 75
     0
  3
KDIMSTYLE (1.00)
100
AcDbDiametricDimension
 15
344.6152266589633
 25
346.9331308886988
 35
0.0
 40
0.0
1001
ACAD
1000
DSTYLE
1002
{
1070
   178
1070
     7
1070
   289
1070
     2
1070
   344
1005
47
1070
   343
1005
47
1070
   283
1070
     1
1070
     3
1000
\H5.0;\W0.965;\Q15;∅<>
1002
}
  0
DIMENSION
  5
1D3
330
1F
100
AcDbEntity
  8
Системный слой
 62
     7
100
AcDbDimension
280
     0
  2
D4
 10
450.1401048313752
 20
171.8480792232803
 30
0.0
 11
315.2225687031041
 21
424.1423431140116
 31
0.0
 70
   163
 71
     5
 42
-1.0
 73
     0
 74
     0
 75
     0
  3
KDIMSTYLE (1.00)
100
AcDbDiametricDimension
 15
343.7942799383432
 25
370.7135668329223
 35
0.0
 40
0.0
1001
ACAD
1000
DSTYLE
1002
{
1070
   178
1070
     7
1070
   289
1070
     2
1070
   344
1005
47
1070
   343
1005
47
1070
   283
1070
     1
1070
     3
1000
\H5.0;\W0.965;\Q15;∅<>
1002
}
  0
DIMENSION
  5
1E8
330
1F
100
AcDbEntity
  8
Системный слой
 62
     7
100
AcDbDimension
280
     0
  2
D5
 10
442.0865803800715
 20
161.4283825727453
 30
0.0
 11
333.4996089047445
 21
425.8057234065031
 31
0.0
 70
   163
 71
     5
 42
-1.0
 73
     0
 74
     0
 75
     0
  3
KDIMSTYLE (1.00)
100
AcDbDiametricDimension
 15
351.847804389647
 25
381.1332634834572
 35
0.0
 40
0.0
1001
ACAD
1000
DSTYLE
1002
{
1070
   178
1070
     7
1070
   289
1070
     2
1070
   344
1005
47
1070
   343
1005
47
1070
   283
1070
     1
1070
     3
1000
\H5.0;\W0.965;\Q15;∅<>
1002
}
  0
DIMENSION
  5
1FB
330
1F
100
AcDbEntity
  8
Системный слой
 62
     7
100
AcDbDimension
280
     0
  2
D6
 10
687.2048306848959
 20
196.4490068181112
 30
0.0
 11
938.4106207478208
 21
385.9697470590802
 31
0.0
 70
   163
 71
     5
 42
-1.0
 73
     0
 74
     0
 75
     0
  3
KDIMSTYLE (1.00)
100
AcDbDiametricDimension
 15
885.5808552716817
 25
346.1126392380914
 35
0.0
 40
0.0
1001
ACAD
1000
DSTYLE
1002
{
1070
   178
1070
     7
1070
   289
1070
     2
1070
   344
1005
47
1070
   343
1005
47
1070
   283
1070
     1
1070
     3
1000
\H5.0;\W0.965;\Q15;∅<>
1002
}
  0
DIMENSION
  5
20E
330
1F
100
AcDbEntity
  8
Системный слой
 62
     7
100
AcDbDimension
280
     0
  2
D7
 10
883.1994502909743
 20
267.5827041327201
 30
0.0
 11
931.8748829737879
 21
297.8697046415994
 31
0.0
 70
   163
 71
     5
 42
-1.0
 73
     0
 74
     0
 75
     0
  3
KDIMSTYLE (1.00)
100
AcDbDiametricDimension
 15
895.0862356656035
 25
274.9789419234825
 35
0.0
 40
0.0
1001
ACAD
1000
DSTYLE
1002
{
1070
   178
1070
     7
1070
   289
1070
     2
1070
   344
1005
47
1070
   343
1005
47
1070
   283
1070
     1
1070
     3
1000
\H5.0;\W0.965;\Q15;∅<>
1002
}
  0
DIMENSION
  5
223
330
1F
100
AcDbEntity
  8
Системный слой
 62
     7
100
AcDbDimension
280
     0
  2
D8
 10
855.7859292675574
 20
341.2118986672067
 30
0.0
 11
899.8502622266207
 21
378.009169297867
 31
0.0
 70
   163
 71
     5
 42
-1.0
 73
     0
 74
     0
 75
     0
  3
KDIMSTYLE (1.00)
100
AcDbDiametricDimension
 15
862.3102002228203
 25
346.6601909227959
 35
0.0
 40
0.0
1001
ACAD
1000
DSTYLE
1002
{
1070
   178
1070
     7
1070
   289
1070
     2
1070
   344
1005
50
1070
   343
1005
50
1070
   283
1070
     1
1070
     3
1000
\H5.0;\W0.965;\Q15;∅<>
1002
}
  0
DIMENSION
  5
236
330
1F
100
AcDbEntity
  8
Системный слой
 62
     7
100
AcDbDimension
280
     0
  2
D9
 10
743.120617979568
 20
251.5699873364267
 30
0.0
 11
941.6417069424145
 21
341.9978903618585
 31
0.0
 70
   163
 71
     5
 42
-1.0
 73
     0
 74
     0
 75
     0
  3
KDIMSTYLE (1.00)
100
AcDbDiametricDimension
 15
829.6650679770097
 25
290.9916587197759
 35
0.0
 40
0.0
1001
ACAD
1000
DSTYLE
1002
{
1070
   178
1070
     7
1070
   289
1070
     2
1070
   344
1005
47
1070
   343
1005
47
1070
   283
1070
     1
1070
     3
1000
\H5.0;\W0.965;\Q15;∅<>
1002
}
  0
DIMENSION
  5
249
330
1F
100
AcDbEntity
  8
Системный слой
 62
     7
100
AcDbDimension
280
     0
  2
D10
 10
725.8730054950091
 20
188.2452175868675
 30
0.0
 11
881.4447419004349
 21
401.6957795705728
 31
0.0
 70
   163
 71
     5
 42
-1.0
 73
     0
 74
     0
 75
     0
  3
KDIMSTYLE (1.00)
100
AcDbDiametricDimension
 15
846.9126804615686
 25
354.3164284693351
 35
0.0
 40
0.0
1001
ACAD
1000
DSTYLE
1002
{
1070
   178
1070
     7
1070
   289
1070
     2
1070
   344
1005
47
1070
   343
1005
47
1070
   283
1070
     1
1070
     3
1000
\H5.0;\W0.965;\Q15;∅<>
1002
}
  0
DIMENSION
  5
25C
330
1F
100
AcDbEntity
  8
Системный слой
 62
     7
100
AcDbDimension
280
     0
  2
D11
 10
592.0959477807367
 20
414.6177037600813
 30
0.0
 11
584.6959477807367
 21
414.6177037600813
 31
0.0
 70
   160
 71
     5
 42
-1.0
 73
     0
 74
     0
 75
     0
  3
KDIMSTYLE (1.00)
100
AcDbAlignedDimension
 13
577.2959477807367
 23
375.9977474673721
 33
0.0
 14
592.0959477807367
 24
378.2808230281013
 34
0.0
100
AcDbRotatedDimension
1001
ACAD
1000
DSTYLE
1002
{
1070
   178
1070
     7
1070
   344
1005
47
1070
   343
1005
47
1070
    42
1040
0.0
1070
    76
1070
     0
1070
    75
1070
     0
1070
   283
1070
     1
1070
     3
1000
\H5.0;\W0.965;\Q15;<>
1002
}
  0
DIMENSION
  5
271
330
1F
100
AcDbEntity
  8
Системный слой
 62
     7
100
AcDbDimension
280
     0
  2
D12
 10
584.7959477807367
 20
375.1833936899509
 30
0.0
 11
567.8604524041498
 21
375.1833936899509
 31
0.0
 70
   160
 71
     5
 42
-1.0
 73
     0
 74
     0
 75
     0
  3
KDIMSTYLE (1.00)
100
AcDbAlignedDimension
 13
577.2959477807367
 23
375.1833936899509
 33
0.0
 14
584.7959477807367
 24
378.2808230281013
 34
0.0
100
AcDbRotatedDimension
1001
ACAD
1000
DSTYLE
1002
{
1070
   178
1070
     7
1070
   344
1005
50
1070
   343
1005
50
1070
    42
1040
0.0
1070
    76
1070
     0
1070
    75
1070
     0
1070
   283
1070
     1
1070
     3
1000
\H5.0;\W0.965;\Q15;<>
1002
}
  0
DIMENSION
  5
287
330
1F
100
AcDbEntity
  8
Системный слой
 62
     7
100
AcDbDimension
280
     0
  2
D13
 10
581.6959477807367
 20
388.2808230281902
 30
0.0
 11
567.684365024711
 21
388.2808230281902
 31
0.0
 70
   160
 71
     5
 42
-1.0
 73
     0
 74
     0
 75
     0
  3
KDIMSTYLE (1.00)
100
AcDbAlignedDimension
 13
577.2959477807535
 23
387.2998135445439
 33
0.0
 14
581.6959477807367
 24
390.0382137331013
 34
0.0
100
AcDbRotatedDimension
1001
ACAD
1000
DSTYLE
1002
{
1070
   178
1070
     7
1070
   344
1005
50
1070
   343
1005
50
1070
    42
1040
0.0
1070
    76
1070
     0
1070
    75
1070
     0
1070
   283
1070
     1
1070
     3
1000
\H5.0;\W0.965;\Q15;<>
1002
}
  0
DIMENSION
  5
296
330
1F
100
AcDbEntity
  8
Системный слой
 62
     7
100
AcDbDimension
280
     0
  2
D14
 10
582.6959477807367
 20
150.2577785541013
 30
0.0
 11
602.3418429274969
 21
140.7355158108519
 31
0.0
 70
   164
 71
     5
 42
-1.0
 73
     0
 74
     0
 75
     0
  3
KDIMSTYLE (1.00)
100
AcDbRadialDimension
 15
584.4956845787617
 25
149.385455530311
 35
0.0
 40
0.0
1001
ACAD
1000
DSTYLE
1002
{
1070
   178
1070
     7
1070
   344
1005
50
1070
   283
1070
     1
1070
     3
1000
\H5.0;\W0.965;\Q15;R<>
1002
}
  0
DIMENSION
  5
2AB
330
1F
100
AcDbEntity
  8
Системный слой
 62
     7
100
AcDbDimension
280
     0
  2
D15
 10
577.2959477807367
 20
161.5308230281013
 30
0.0
 11
566.4102744830368
 21
133.5101013797655
 31
0.0
 70
   162
 71
     5
 42
-1.0
 73
     0
 74
     0
 75
     0
  3
KDIMSTYLE (1.00)
100
AcDb2LineAngularDimension
 13
577.2959477807756
 23
147.0308230279234
 33
0.0
 14
583.122833718329
 24
148.3038675024564
 34
0.0
 15
577.2959477807756
 25
147.0308230279234
 35
0.0
 16
594.2162594113539
 26
150.9052070249201
 36
0.0
1001
ACAD
1000
DSTYLE
1002
{
1070
   178
1070
     7
1070
   344
1005
47
1070
   343
1005
47
1070
   283
1070
     1
1070
     3
1000
\H5.0;\W0.965;\Q15;<>
1002
}
  0
DIMENSION
  5
2C0
330
1F
100
AcDbEntity
  8
Системный слой
 62
     7
100
AcDbDimension
280
     0
  2
D16
 10
581.6959477807367
 20
152.5234323231013
 30
0.0
 11
612.9333144654222
 21
129.145587320432
 31
0.0
 70
   162
 71
     5
 42
-1.0
 73
     0
 74
     0
 75
     0
  3
KDIMSTYLE (1.00)
100
AcDb2LineAngularDimension
 13
581.6959477807367
 23
157.5234323231014
 33
0.0
 14
592.0959477807367
 24
158.5234323231013
 34
0.0
 15
581.6959477807367
 25
157.5234323231014
 35
0.0
 16
623.7432744282014
 26
161.1424772510391
 36
0.0
1001
ACAD
1000
DSTYLE
1002
{
1070
   178
1070
     7
1070
   344
1005
47
1070
   343
1005
47
1070
   283
1070
     1
1070
     3
1000
\H5.0;\W0.965;\Q15;<>
1002
}
  0
DIMENSION
  5
2D6
330
1F
100
AcDbEntity
  8
Системный слой
 62
     7
100
AcDbDimension
280
     0
  2
D17
 10
584.0959477807367
 20
295.0558230281013
 30
0.0
 11
599.592608013281
 21
295.0558230281013
 31
0.0
 70
   160
 71
     5
 42
-1.0
 73
     0
 74
     0
 75
     0
  3
KDIMSTYLE (1.00)
100
AcDbAlignedDimension
 13
592.0959477807371
 23
298.9772951077729
 33
0.0
 14
584.0959477807367
 24
303.7808230281013
 34
0.0
100
AcDbRotatedDimension
1001
ACAD
1000
DSTYLE
1002
{
1070
   178
1070
     7
1070
   344
1005
50
1070
   343
1005
50
1070
    42
1040
0.0
1070
    76
1070
     0
1070
    75
1070
     0
1070
   283
1070
     1
1070
     3
1000
\H5.0;\W0.965;\Q15;<>
1002
}
  0
INSERT
  5
2D8
330
1F
100
AcDbEntity
  8
0
100
AcDbBlockReference
  2
U4
 10
0.0
 20
0.0
 30
0.0
  0
ENDSEC
  0
SECTION
  2
OBJECTS
  0
DICTIONARY
  5
C
330
0
100
AcDbDictionary
281
     1
  3
ACAD_GROUP
350
D
  3
ACAD_LAYOUT
350
1A
  3
ACAD_MATERIAL
350
3B
  3
ACAD_MLEADERSTYLE
350
353
  3
ACAD_MLINESTYLE
350
17
  3
ACAD_PLOTSETTINGS
350
19
  3
ACAD_PLOTSTYLENAME
350
E
  3
ACAD_SCALELIST
350
32E
  3
ACAD_TABLESTYLE
350
352
  3
ACAD_VISUALSTYLE
350
2A
  3
ACAD_WIPEOUT_VARS
350
16E
  3
AcDbVariableDictionary
350
350
  0
SUN
  5
3F
330
29
100
AcDbSun
 90
        1
290
     0
 63
     7
421
 16777215
 40
1.0
291
     1
 91
  2455826
 92
 54000000
292
     0
 70
     2
 71
   256
280
     1
  0
DICTIONARY
  5
D
102
{ACAD_REACTORS
330
C
102
}
330
C
100
AcDbDictionary
281
     1
  0
DICTIONARY
  5
1A
102
{ACAD_REACTORS
330
C
102
}
330
C
100
AcDbDictionary
281
     1
  3
Layout1
350
1E
  3
Layout2
350
26
  3
Model
350
22
  0
DICTIONARY
  5
3B
102
{ACAD_REACTORS
330
C
102
}
330
C
100
AcDbDictionary
281
     1
  3
ByBlock
350
3D
  3
ByLayer
350
3C
  3
Global
350
3E
  0
DICTIONARY
  5
353
102
{ACAD_REACTORS
330
C
102
}
330
C
100
AcDbDictionary
281
     1
  0
DICTIONARY
  5
17
102
{ACAD_REACTORS
330
C
102
}
330
C
100
AcDbDictionary
281
     1
  3
Standard
350
18
  0
DICTIONARY
  5
19
102
{ACAD_REACTORS
330
C
102
}
330
C
100
AcDbDictionary
281
     1
  0
ACDBDICTIONARYWDFLT
  5
E
102
{ACAD_REACTORS
330
C
102
}
330
C
100
AcDbDictionary
281
     1
  3
Normal
350
F
100
AcDbDictionaryWithDefault
340
F
  0
DICTIONARY
  5
32E
102
{ACAD_REACTORS
330
C
102
}
330
C
100
AcDbDictionary
281
     1
  3
A0
350
32F
  3
A1
350
330
  3
A2
350
331
  3
A3
350
332
  3
A4
350
333
  3
A5
350
334
  3
A6
350
335
  3
A7
350
336
  3
A8
350
337
  3
A9
350
338
  3
B0
350
339
  3
B1
350
33A
  3
B2
350
33B
  3
B3
350
33C
  3
B4
350
33D
  3
B5
350
33E
  3
B6
350
33F
  3
B7
350
340
  3
B8
350
341
  3
B9
350
342
  3
C0
350
343
  3
C1
350
344
  3
C2
350
345
  3
C3
350
346
  3
C4
350
347
  3
C5
350
348
  3
C6
350
349
  3
C7
350
34A
  3
C8
350
34B
  3
C9
350
34C
  3
D0
350
34D
  3
D1
350
34E
  3
D2
350
34F
  0
DICTIONARY
  5
352
102
{ACAD_REACTORS
330
C
102
}
330
C
100
AcDbDictionary
281
     1
  0
DICTIONARY
  5
2A
102
{ACAD_REACTORS
330
C
102
}
330
C
100
AcDbDictionary
281
     1
  3
2dWireframe
350
2F
  3
3D Hidden
350
31
  3
3dWireframe
350
30
  3
Basic
350
32
  3
Brighten
350
36
  3
ColorChange
350
3A
  3
Conceptual
350
34
  3
Dim
350
35
  3
Facepattern
350
39
  3
Flat
350
2B
  3
FlatWithEdges
350
2C
  3
Gouraud
350
2D
  3
GouraudWithEdges
350
2E
  3
Linepattern
350
38
  3
Realistic
350
33
  3
Thicken
350
37
  0
WIPEOUTVARIABLES
  5
16E
102
{ACAD_REACTORS
330
C
102
}
330
C
100
AcDbWipeoutVariables
 70
     0
  0
DICTIONARY
  5
350
102
{ACAD_REACTORS
330
C
102
}
330
C
100
AcDbDictionary
281
     1
  3
CANNOSCALE
350
351
  0
LAYOUT
  5
1E
102
{ACAD_REACTORS
330
1A
102
}
330
1A
100
AcDbPlotSettings
  1

  2
none_device
  4

  6

 40
0.0
 41
0.0
 42
0.0
 43
0.0
 44
0.0
 45
0.0
 46
0.0
 47
0.0
 48
0.0
 49
0.0
140
0.0
141
0.0
142
1.0
143
1.0
 70
   688
 72
     0
 73
     0
 74
     5
  7

 75
    16
 76
     0
 77
     2
 78
   300
147
1.0
148
0.0
149
0.0
100
AcDbLayout
  1
Layout1
 70
     1
 71
     1
 10
0.0
 20
0.0
 11
420.0
 21
297.0
 12
0.0
 22
0.0
 32
0.0
 14
1.000000000000000E+20
 24
1.000000000000000E+20
 34
1.000000000000000E+20
 15
-1.000000000000000E+20
 25
-1.000000000000000E+20
 35
-1.000000000000000E+20
146
0.0
 13
0.0
 23
0.0
 33
0.0
 16
1.0
 26
0.0
 36
0.0
 17
0.0
 27
1.0
 37
0.0
 76
     0
330
1B
  0
LAYOUT
  5
26
102
{ACAD_REACTORS
330
1A
102
}
330
1A
100
AcDbPlotSettings
  1

  2
none_device
  4

  6

 40
0.0
 41
0.0
 42
0.0
 43
0.0
 44
0.0
 45
0.0
 46
0.0
 47
0.0
 48
0.0
 49
0.0
140
0.0
141
0.0
142
1.0
143
1.0
 70
   688
 72
     0
 73
     0
 74
     5
  7

 75
    16
 76
     0
 77
     2
 78
   300
147
1.0
148
0.0
149
0.0
100
AcDbLayout
  1
Layout2
 70
     1
 71
     2
 10
0.0
 20
0.0
 11
0.0
 21
0.0
 12
0.0
 22
0.0
 32
0.0
 14
0.0
 24
0.0
 34
0.0
 15
0.0
 25
0.0
 35
0.0
146
0.0
 13
0.0
 23
0.0
 33
0.0
 16
1.0
 26
0.0
 36
0.0
 17
0.0
 27
1.0
 37
0.0
 76
     0
330
23
  0
LAYOUT
  5
22
102
{ACAD_REACTORS
330
1A
102
}
330
1A
100
AcDbPlotSettings
  1

  2
none_device
  4

  6

 40
0.0
 41
0.0
 42
0.0
 43
0.0
 44
0.0
 45
0.0
 46
0.0
 47
0.0
 48
0.0
 49
0.0
140
0.0
141
0.0
142
1.0
143
1.0
 70
  1712
 72
     0
 73
     0
 74
     0
  7

 75
     0
 76
     0
 77
     2
 78
   300
147
1.0
148
0.0
149
0.0
100
AcDbLayout
  1
Model
 70
     1
 71
     0
 10
0.0
 20
0.0
 11
420.0
 21
297.0
 12
0.0
 22
0.0
 32
0.0
 14
0.0
 24
0.0
 34
0.0
 15
950.9226604995788
 25
438.3556825704519
 35
0.0
146
0.0
 13
0.0
 23
0.0
 33
0.0
 16
1.0
 26
0.0
 36
0.0
 17
0.0
 27
1.0
 37
0.0
 76
     0
330
1F
331
29
  0
MATERIAL
  5
3D
102
{ACAD_REACTORS
330
3B
102
}
330
3B
100
AcDbMaterial
  1
ByBlock
 72
     1
 94
      127
  0
MATERIAL
  5
3C
102
{ACAD_REACTORS
330
3B
102
}
330
3B
100
AcDbMaterial
  1
ByLayer
 72
     1
 94
      127
  0
MATERIAL
  5
3E
102
{ACAD_REACTORS
330
3B
102
}
330
3B
100
AcDbMaterial
  1
Global
 72
     1
 94
      127
  0
MLINESTYLE
  5
18
102
{ACAD_REACTORS
330
17
102
}
330
17
100
AcDbMlineStyle
  2
Standard
 70
     0
  3

 62
   256
 51
90.0
 52
90.0
 71
     2
 49
0.5
 62
   256
  6
BYLAYER
 49
-0.5
 62
   256
  6
BYLAYER
  0
ACDBPLACEHOLDER
  5
F
102
{ACAD_REACTORS
330
E
102
}
330
E
  0
SCALE
  5
32F
102
{ACAD_REACTORS
330
32E
102
}
330
32E
100
AcDbScale
 70
     0
300
1:1
140
1.0
141
1.0
290
     1
  0
SCALE
  5
330
102
{ACAD_REACTORS
330
32E
102
}
330
32E
100
AcDbScale
 70
     0
300
1:2
140
1.0
141
2.0
290
     0
  0
SCALE
  5
331
102
{ACAD_REACTORS
330
32E
102
}
330
32E
100
AcDbScale
 70
     0
300
1:4
140
1.0
141
4.0
290
     0
  0
SCALE
  5
332
102
{ACAD_REACTORS
330
32E
102
}
330
32E
100
AcDbScale
 70
     0
300
1:5
140
1.0
141
5.0
290
     0
  0
SCALE
  5
333
102
{ACAD_REACTORS
330
32E
102
}
330
32E
100
AcDbScale
 70
     0
300
1:8
140
1.0
141
8.0
290
     0
  0
SCALE
  5
334
102
{ACAD_REACTORS
330
32E
102
}
330
32E
100
AcDbScale
 70
     0
300
1:10
140
1.0
141
10.0
290
     0
  0
SCALE
  5
335
102
{ACAD_REACTORS
330
32E
102
}
330
32E
100
AcDbScale
 70
     0
300
1:16
140
1.0
141
16.0
290
     0
  0
SCALE
  5
336
102
{ACAD_REACTORS
330
32E
102
}
330
32E
100
AcDbScale
 70
     0
300
1:20
140
1.0
141
20.0
290
     0
  0
SCALE
  5
337
102
{ACAD_REACTORS
330
32E
102
}
330
32E
100
AcDbScale
 70
     0
300
1:30
140
1.0
141
30.0
290
     0
  0
SCALE
  5
338
102
{ACAD_REACTORS
330
32E
102
}
330
32E
100
AcDbScale
 70
     0
300
1:40
140
1.0
141
40.0
290
     0
  0
SCALE
  5
339
102
{ACAD_REACTORS
330
32E
102
}
330
32E
100
AcDbScale
 70
     0
300
1:50
140
1.0
141
50.0
290
     0
  0
SCALE
  5
33A
102
{ACAD_REACTORS
330
32E
102
}
330
32E
100
AcDbScale
 70
     0
300
1:100
140
1.0
141
100.0
290
     0
  0
SCALE
  5
33B
102
{ACAD_REACTORS
330
32E
102
}
330
32E
100
AcDbScale
 70
     0
300
2:1
140
2.0
141
1.0
290
     0
  0
SCALE
  5
33C
102
{ACAD_REACTORS
330
32E
102
}
330
32E
100
AcDbScale
 70
     0
300
4:1
140
4.0
141
1.0
290
     0
  0
SCALE
  5
33D
102
{ACAD_REACTORS
330
32E
102
}
330
32E
100
AcDbScale
 70
     0
300
8:1
140
8.0
141
1.0
290
     0
  0
SCALE
  5
33E
102
{ACAD_REACTORS
330
32E
102
}
330
32E
100
AcDbScale
 70
     0
300
10:1
140
10.0
141
1.0
290
     0
  0
SCALE
  5
33F
102
{ACAD_REACTORS
330
32E
102
}
330
32E
100
AcDbScale
 70
     0
300
100:1
140
100.0
141
1.0
290
     0
  0
SCALE
  5
340
102
{ACAD_REACTORS
330
32E
102
}
330
32E
100
AcDbScale
 70
     0
300
1/128" = 1'-0"
140
0.0078125
141
12.0
290
     0
  0
SCALE
  5
341
102
{ACAD_REACTORS
330
32E
102
}
330
32E
100
AcDbScale
 70
     0
300
1/64" = 1'-0"
140
0.015625
141
12.0
290
     0
  0
SCALE
  5
342
102
{ACAD_REACTORS
330
32E
102
}
330
32E
100
AcDbScale
 70
     0
300
1/32" = 1'-0"
140
0.03125
141
12.0
290
     0
  0
SCALE
  5
343
102
{ACAD_REACTORS
330
32E
102
}
330
32E
100
AcDbScale
 70
     0
300
1/16" = 1'-0"
140
0.0625
141
12.0
290
     0
  0
SCALE
  5
344
102
{ACAD_REACTORS
330
32E
102
}
330
32E
100
AcDbScale
 70
     0
300
3/32" = 1'-0"
140
0.09375
141
12.0
290
     0
  0
SCALE
  5
345
102
{ACAD_REACTORS
330
32E
102
}
330
32E
100
AcDbScale
 70
     0
300
1/8" = 1'-0"
140
0.125
141
12.0
290
     0
  0
SCALE
  5
346
102
{ACAD_REACTORS
330
32E
102
}
330
32E
100
AcDbScale
 70
     0
300
3/16" = 1'-0"
140
0.1875
141
12.0
290
     0
  0
SCALE
  5
347
102
{ACAD_REACTORS
330
32E
102
}
330
32E
100
AcDbScale
 70
     0
300
1/4" = 1'-0"
140
0.25
141
12.0
290
     0
  0
SCALE
  5
348
102
{ACAD_REACTORS
330
32E
102
}
330
32E
100
AcDbScale
 70
     0
300
3/8" = 1'-0"
140
0.375
141
12.0
290
     0
  0
SCALE
  5
349
102
{ACAD_REACTORS
330
32E
102
}
330
32E
100
AcDbScale
 70
     0
300
1/2" = 1'-0"
140
0.5
141
12.0
290
     0
  0
SCALE
  5
34A
102
{ACAD_REACTORS
330
32E
102
}
330
32E
100
AcDbScale
 70
     0
300
3/4" = 1'-0"
140
0.75
141
12.0
290
     0
  0
SCALE
  5
34B
102
{ACAD_REACTORS
330
32E
102
}
330
32E
100
AcDbScale
 70
     0
300
1" = 1'-0"
140
1.0
141
12.0
290
     0
  0
SCALE
  5
34C
102
{ACAD_REACTORS
330
32E
102
}
330
32E
100
AcDbScale
 70
     0
300
1-1/2" = 1'-0"
140
1.5
141
12.0
290
     0
  0
SCALE
  5
34D
102
{ACAD_REACTORS
330
32E
102
}
330
32E
100
AcDbScale
 70
     0
300
3" = 1'-0"
140
3.0
141
12.0
290
     0
  0
SCALE
  5
34E
102
{ACAD_REACTORS
330
32E
102
}
330
32E
100
AcDbScale
 70
     0
300
6" = 1'-0"
140
6.0
141
12.0
290
     0
  0
SCALE
  5
34F
102
{ACAD_REACTORS
330
32E
102
}
330
32E
100
AcDbScale
 70
     0
300
1'-0" = 1'-0"
140
12.0
141
12.0
290
     0
  0
VISUALSTYLE
  5
2F
102
{ACAD_REACTORS
330
2A
102
}
330
2A
100
AcDbVisualStyle
  2
2dWireframe
 70
     4
177
     2
291
     0
 71
     0
176
     1
 72
     2
176
     1
 73
     0
176
     1
 90
        0
176
     1
 40
-0.6
176
     1
 41
-30.0
176
     1
 62
     5
 63
     7
421
 16777215
176
     1
 74
     1
176
     1
 91
        4
176
     1
 64
     7
176
     1
 65
   257
176
     1
 75
     1
176
     1
175
     1
176
     1
 42
1.0
176
     1
 92
        0
176
     1
 66
   257
176
     1
 43
1.0
176
     1
 76
     1
176
     1
 77
     6
176
     1
 78
     2
176
     1
 67
     7
176
     1
 79
     5
176
     1
170
     0
176
     1
171
     0
176
     1
290
     0
176
     1
 93
        1
176
     1
 44
0.0
176
     1
173
     0
176
     1
  0
VISUALSTYLE
  5
31
102
{ACAD_REACTORS
330
2A
102
}
330
2A
100
AcDbVisualStyle
  2
3D Hidden
 70
     6
177
     2
291
     0
 71
     1
176
     1
 72
     2
176
     1
 73
     2
176
     1
 90
        0
176
     1
 40
-0.6
176
     1
 41
-30.0
176
     1
 62
     5
 63
     7
421
 16777215
176
     1
 74
     2
176
     1
 91
        2
176
     1
 64
     7
176
     1
 65
   257
176
     1
 75
     2
176
     1
175
     1
176
     1
 42
40.0
176
     1
 92
        0
176
     1
 66
   257
176
     1
 43
1.0
176
     1
 76
     1
176
     1
 77
     6
176
     1
 78
     2
176
     1
 67
     7
176
     1
 79
     3
176
     1
170
     0
176
     1
171
     0
176
     1
290
     0
176
     1
 93
        1
176
     1
 44
0.0
176
     1
173
     0
176
     1
  0
VISUALSTYLE
  5
30
102
{ACAD_REACTORS
330
2A
102
}
330
2A
100
AcDbVisualStyle
  2
3dWireframe
 70
     5
177
     2
291
     0
 71
     0
176
     1
 72
     2
176
     1
 73
     0
176
     1
 90
        0
176
     1
 40
-0.6
176
     1
 41
-30.0
176
     1
 62
     5
 63
     7
421
 16777215
176
     1
 74
     1
176
     1
 91
        4
176
     1
 64
     7
176
     1
 65
   257
176
     1
 75
     1
176
     1
175
     1
176
     1
 42
1.0
176
     1
 92
        0
176
     1
 66
   257
176
     1
 43
1.0
176
     1
 76
     1
176
     1
 77
     6
176
     1
 78
     2
176
     1
 67
     7
176
     1
 79
     5
176
     1
170
     0
176
     1
171
     0
176
     1
290
     0
176
     1
 93
        1
176
     1
 44
0.0
176
     1
173
     0
176
     1
  0
VISUALSTYLE
  5
32
102
{ACAD_REACTORS
330
2A
102
}
330
2A
100
AcDbVisualStyle
  2
Basic
 70
     7
177
     2
291
     1
 71
     1
176
     1
 72
     0
176
     1
 73
     1
176
     1
 90
        0
176
     1
 40
-0.6
176
     1
 41
-30.0
176
     1
 62
     5
 63
     7
421
 16777215
176
     1
 74
     0
176
     1
 91
        4
176
     1
 64
     7
176
     1
 65
   257
176
     1
 75
     1
176
     1
175
     1
176
     1
 42
1.0
176
     1
 92
        8
176
     1
 66
     7
176
     1
 43
1.0
176
     1
 76
     1
176
     1
 77
     6
176
     1
 78
     2
176
     1
 67
     7
176
     1
 79
     5
176
     1
170
     0
176
     1
171
     0
176
     1
290
     0
176
     1
 93
        1
176
     1
 44
0.0
176
     1
173
     0
176
     1
  0
VISUALSTYLE
  5
36
102
{ACAD_REACTORS
330
2A
102
}
330
2A
100
AcDbVisualStyle
  2
Brighten
 70
    12
177
     2
291
     1
 71
     2
176
     1
 72
     2
176
     1
 73
     0
176
     1
 90
        0
176
     1
 40
-0.6
176
     1
 41
-30.0
176
     1
 62
     5
 63
     7
421
 16777215
176
     1
 74
     1
176
     1
 91
        4
176
     1
 64
     7
176
     1
 65
   257
176
     1
 75
     1
176
     1
175
     1
176
     1
 42
1.0
176
     1
 92
        8
176
     1
 66
     7
176
     1
 43
1.0
176
     1
 76
     1
176
     1
 77
     6
176
     1
 78
     2
176
     1
 67
     7
176
     1
 79
     5
176
     1
170
     0
176
     1
171
     0
176
     1
290
     0
176
     1
 93
        1
176
     1
 44
50.0
176
     1
173
     0
176
     1
  0
VISUALSTYLE
  5
3A
102
{ACAD_REACTORS
330
2A
102
}
330
2A
100
AcDbVisualStyle
  2
ColorChange
 70
    16
177
     2
291
     1
 71
     2
176
     1
 72
     2
176
     1
 73
     3
176
     1
 90
        0
176
     1
 40
-0.6
176
     1
 41
-30.0
176
     1
 62
     5
 63
     8
421
  8421504
176
     1
 74
     1
176
     1
 91
        4
176
     1
 64
     7
176
     1
 65
   257
176
     1
 75
     1
176
     1
175
     1
176
     1
 42
1.0
176
     1
 92
        8
176
     1
 66
     8
424
  8421504
176
     1
 43
1.0
176
     1
 76
     1
176
     1
 77
     6
176
     1
 78
     2
176
     1
 67
     7
176
     1
 79
     5
176
     1
170
     0
176
     1
171
     0
176
     1
290
     0
176
     1
 93
        1
176
     1
 44
0.0
176
     1
173
     0
176
     1
  0
VISUALSTYLE
  5
34
102
{ACAD_REACTORS
330
2A
102
}
330
2A
100
AcDbVisualStyle
  2
Conceptual
 70
     9
177
     2
291
     0
 71
     3
176
     1
 72
     2
176
     1
 73
     0
176
     1
 90
        0
176
     1
 40
-0.6
176
     1
 41
-30.0
176
     1
 62
     5
 63
     7
421
 16777215
176
     1
 74
     2
176
     1
 91
        2
176
     1
 64
     7
176
     1
 65
   257
176
     1
 75
     1
176
     1
175
     1
176
     1
 42
40.0
176
     1
 92
        8
176
     1
 66
     7
176
     1
 43
1.0
176
     1
 76
     1
176
     1
 77
     6
176
     1
 78
     2
176
     1
 67
     7
176
     1
 79
     3
176
     1
170
     0
176
     1
171
     0
176
     1
290
     0
176
     1
 93
        1
176
     1
 44
0.0
176
     1
173
     0
176
     1
  0
VISUALSTYLE
  5
35
102
{ACAD_REACTORS
330
2A
102
}
330
2A
100
AcDbVisualStyle
  2
Dim
 70
    11
177
     2
291
     1
 71
     2
176
     1
 72
     2
176
     1
 73
     0
176
     1
 90
        0
176
     1
 40
-0.6
176
     1
 41
-30.0
176
     1
 62
     5
 63
     7
421
 16777215
176
     1
 74
     1
176
     1
 91
        4
176
     1
 64
     7
176
     1
 65
   257
176
     1
 75
     1
176
     1
175
     1
176
     1
 42
1.0
176
     1
 92
        8
176
     1
 66
     7
176
     1
 43
1.0
176
     1
 76
     1
176
     1
 77
     6
176
     1
 78
     2
176
     1
 67
     7
176
     1
 79
     5
176
     1
170
     0
176
     1
171
     0
176
     1
290
     0
176
     1
 93
        1
176
     1
 44
-50.0
176
     1
173
     0
176
     1
  0
VISUALSTYLE
  5
39
102
{ACAD_REACTORS
330
2A
102
}
330
2A
100
AcDbVisualStyle
  2
Facepattern
 70
    15
177
     2
291
     1
 71
     2
176
     1
 72
     2
176
     1
 73
     0
176
     1
 90
        0
176
     1
 40
-0.6
176
     1
 41
-30.0
176
     1
 62
     5
 63
     7
421
 16777215
176
     1
 74
     1
176
     1
 91
        4
176
     1
 64
     7
176
     1
 65
   257
176
     1
 75
     1
176
     1
175
     1
176
     1
 42
1.0
176
     1
 92
        8
176
     1
 66
     7
176
     1
 43
1.0
176
     1
 76
     1
176
     1
 77
     6
176
     1
 78
     2
176
     1
 67
     7
176
     1
 79
     5
176
     1
170
     0
176
     1
171
     0
176
     1
290
     0
176
     1
 93
        1
176
     1
 44
0.0
176
     1
173
     0
176
     1
  0
VISUALSTYLE
  5
2B
102
{ACAD_REACTORS
330
2A
102
}
330
2A
100
AcDbVisualStyle
  2
Flat
 70
     0
177
     2
291
     1
 71
     2
176
     1
 72
     1
176
     1
 73
     1
176
     1
 90
        2
176
     1
 40
-0.6
176
     1
 41
30.0
176
     1
 62
     5
 63
     7
421
 16777215
176
     1
 74
     0
176
     1
 91
        4
176
     1
 64
     7
176
     1
 65
   257
176
     1
 75
     1
176
     1
175
     1
176
     1
 42
1.0
176
     1
 92
        8
176
     1
 66
     7
176
     1
 43
1.0
176
     1
 76
     1
176
     1
 77
     6
176
     1
 78
     2
176
     1
 67
     7
176
     1
 79
     5
176
     1
170
     0
176
     1
171
     0
176
     1
290
     0
176
     1
 93
       13
176
     1
 44
0.0
176
     1
173
     0
176
     1
  0
VISUALSTYLE
  5
2C
102
{ACAD_REACTORS
330
2A
102
}
330
2A
100
AcDbVisualStyle
  2
FlatWithEdges
 70
     1
177
     2
291
     1
 71
     2
176
     1
 72
     1
176
     1
 73
     1
176
     1
 90
        2
176
     1
 40
-0.6
176
     1
 41
30.0
176
     1
 62
     5
 63
     7
421
 16777215
176
     1
 74
     1
176
     1
 91
        4
176
     1
 64
     7
176
     1
 65
   257
176
     1
 75
     1
176
     1
175
     1
176
     1
 42
1.0
176
     1
 92
        0
176
     1
 66
   257
176
     1
 43
1.0
176
     1
 76
     1
176
     1
 77
     6
176
     1
 78
     2
176
     1
 67
     7
176
     1
 79
     5
176
     1
170
     0
176
     1
171
     0
176
     1
290
     0
176
     1
 93
       13
176
     1
 44
0.0
176
     1
173
     0
176
     1
  0
VISUALSTYLE
  5
2D
102
{ACAD_REACTORS
330
2A
102
}
330
2A
100
AcDbVisualStyle
  2
Gouraud
 70
     2
177
     2
291
     1
 71
     2
176
     1
 72
     2
176
     1
 73
     1
176
     1
 90
        2
176
     1
 40
-0.6
176
     1
 41
30.0
176
     1
 62
     5
 63
     7
421
 16777215
176
     1
 74
     0
176
     1
 91
        4
176
     1
 64
     7
176
     1
 65
   257
176
     1
 75
     1
176
     1
175
     1
176
     1
 42
1.0
176
     1
 92
        0
176
     1
 66
     7
176
     1
 43
1.0
176
     1
 76
     1
176
     1
 77
     6
176
     1
 78
     2
176
     1
 67
     7
176
     1
 79
     5
176
     1
170
     0
176
     1
171
     0
176
     1
290
     0
176
     1
 93
       13
176
     1
 44
0.0
176
     1
173
     0
176
     1
  0
VISUALSTYLE
  5
2E
102
{ACAD_REACTORS
330
2A
102
}
330
2A
100
AcDbVisualStyle
  2
GouraudWithEdges
 70
     3
177
     2
291
     1
 71
     2
176
     1
 72
     2
176
     1
 73
     1
176
     1
 90
        2
176
     1
 40
-0.6
176
     1
 41
30.0
176
     1
 62
     5
 63
     7
421
 16777215
176
     1
 74
     1
176
     1
 91
        4
176
     1
 64
     7
176
     1
 65
   257
176
     1
 75
     1
176
     1
175
     1
176
     1
 42
1.0
176
     1
 92
        0
176
     1
 66
   257
176
     1
 43
1.0
176
     1
 76
     1
176
     1
 77
     6
176
     1
 78
     2
176
     1
 67
     7
176
     1
 79
     5
176
     1
170
     0
176
     1
171
     0
176
     1
290
     0
176
     1
 93
       13
176
     1
 44
0.0
176
     1
173
     0
176
     1
  0
VISUALSTYLE
  5
38
102
{ACAD_REACTORS
330
2A
102
}
330
2A
100
AcDbVisualStyle
  2
Linepattern
 70
    14
177
     2
291
     1
 71
     2
176
     1
 72
     2
176
     1
 73
     0
176
     1
 90
        0
176
     1
 40
-0.6
176
     1
 41
-30.0
176
     1
 62
     5
 63
     7
421
 16777215
176
     1
 74
     1
176
     1
 91
        4
176
     1
 64
     7
176
     1
 65
   257
176
     1
 75
     7
176
     1
175
     7
176
     1
 42
1.0
176
     1
 92
        8
176
     1
 66
     7
176
     1
 43
1.0
176
     1
 76
     1
176
     1
 77
     6
176
     1
 78
     2
176
     1
 67
     7
176
     1
 79
     5
176
     1
170
     0
176
     1
171
     0
176
     1
290
     0
176
     1
 93
        1
176
     1
 44
0.0
176
     1
173
     0
176
     1
  0
VISUALSTYLE
  5
33
102
{ACAD_REACTORS
330
2A
102
}
330
2A
100
AcDbVisualStyle
  2
Realistic
 70
     8
177
     2
291
     0
 71
     2
176
     1
 72
     2
176
     1
 73
     0
176
     1
 90
        0
176
     1
 40
-0.6
176
     1
 41
-30.0
176
     1
 62
     5
 63
     7
421
 16777215
176
     1
 74
     1
176
     1
 91
        0
176
     1
 64
     7
176
     1
 65
   257
176
     1
 75
     1
176
     1
175
     1
176
     1
 42
1.0
176
     1
 92
        8
176
     1
 66
     8
424
  7895160
176
     1
 43
1.0
176
     1
 76
     1
176
     1
 77
     6
176
     1
 78
     2
176
     1
 67
     7
176
     1
 79
     5
176
     1
170
     0
176
     1
171
     0
176
     1
290
     0
176
     1
 93
       13
176
     1
 44
0.0
176
     1
173
     0
176
     1
  0
VISUALSTYLE
  5
37
102
{ACAD_REACTORS
330
2A
102
}
330
2A
100
AcDbVisualStyle
  2
Thicken
 70
    13
177
     2
291
     1
 71
     2
176
     1
 72
     2
176
     1
 73
     0
176
     1
 90
        0
176
     1
 40
-0.6
176
     1
 41
-30.0
176
     1
 62
     5
 63
     7
421
 16777215
176
     1
 74
     1
176
     1
 91
        4
176
     1
 64
     7
176
     1
 65
   257
176
     1
 75
     1
176
     1
175
     1
176
     1
 42
1.0
176
     1
 92
       12
176
     1
 66
     7
176
     1
 43
1.0
176
     1
 76
     1
176
     1
 77
     6
176
     1
 78
     2
176
     1
 67
     7
176
     1
 79
     5
176
     1
170
     0
176
     1
171
     0
176
     1
290
     0
176
     1
 93
        1
176
     1
 44
0.0
176
     1
173
     0
176
     1
  0
DICTIONARYVAR
  5
351
102
{ACAD_REACTORS
330
350
102
}
330
350
100
DictionaryVariables
280
     0
  1
1:1
  0
ENDSEC
  0
SECTION
  2
THUMBNAILIMAGE
 90
    16364
310
28000000B40000005500000001000800000000000000000000000000000000000000000000000000FFFFFF00FF000000FFFF000000FF000000FFFF000000FF00FF00FF000000000080808000C0C0C000FF000000FF7F7F00A5000000A55252007F0000007F3F3F004C0000004C2626002600000026131300FF3F0000FF9F7F
310
00A5290000A56752007F1F00007F4F3F004C1300004C2F26002609000026171300FF7F0000FFBF7F00A5520000A57C52007F3F00007F5F3F004C2600004C39260026130000261C1300FFBF0000FFDF7F00A57C0000A59152007F5F00007F6F3F004C3900004C422600261C000026211300FFFF0000FFFF7F00A5A50000A5A5
310
52007F7F00007F7F3F004C4C00004C4C26002626000026261300BFFF0000DFFF7F007CA5000091A552005F7F00006F7F3F00394C0000424C26001C260000212613007FFF0000BFFF7F0052A500007CA552003F7F00005F7F3F00264C0000394C2600132600001C2613003FFF00009FFF7F0029A5000067A552001F7F00004F
310
7F3F00134C00002F4C2600092600001726130000FF00007FFF7F0000A5000052A55200007F00003F7F3F00004C0000264C2600002600001326130000FF3F007FFF9F0000A5290052A56700007F1F003F7F4F00004C1300264C2F00002609001326170000FF7F007FFFBF0000A5520052A57C00007F3F003F7F5F00004C2600
310
264C39000026130013261C0000FFBF007FFFDF0000A57C0052A59100007F5F003F7F6F00004C3900264C420000261C001326210000FFFF007FFFFF0000A5A50052A5A500007F7F003F7F7F00004C4C00264C4C00002626001326260000BFFF007FDFFF00007CA5005291A500005F7F003F6F7F0000394C0026424C00001C26
310
0013212600007FFF007FBFFF000052A500527CA500003F7F003F5F7F0000264C0026394C0000132600131C2600003FFF007F9FFF000029A5005267A500001F7F003F4F7F0000134C00262F4C0000092600131726000000FF007F7FFF000000A5005252A50000007F003F3F7F0000004C0026264C0000002600131326003F00
310
FF009F7FFF002900A5006752A5001F007F004F3F7F0013004C002F264C0009002600171326007F00FF00BF7FFF005200A5007C52A5003F007F005F3F7F0026004C0039264C00130026001C132600BF00FF00DF7FFF007C00A5009152A5005F007F006F3F7F0039004C0042264C001C00260021132600FF00FF00FF7FFF00A5
310
00A500A552A5007F007F007F3F7F004C004C004C264C002600260026132600FF00BF00FF7FDF00A5007C00A55291007F005F007F3F6F004C0039004C26420026001C0026132100FF007F00FF7FBF00A5005200A5527C007F003F007F3F5F004C0026004C2639002600130026131C00FF003F00FF7F9F00A5002900A5526700
310
7F001F007F3F4F004C0013004C262F002600090026131700000000002D2D2D005B5B5B0089898900B7B7B700B3B3B30000000000000000000000000000000000000000000000000000000000000000000000000000000000000000000000000000000000000000000000000000000000000000000000000000000000000000
310
00000000000000000000000000000000000000000000000000000000000000000000000000000000000000000000000000000000000000000000000000000000000000000000000000000000000000000000000000000000000000000000000000000000000000000000000000000000000000000000000000000000000000
310
00000000000000000000000000000000000000000000000000000000000000000000000000000000000000000000000000000000000000000000000000000000000000000000000000000000000000000000000000000000000000000000000000000000000000000000000000000000000000000000000000000000000000
310
00000000000000000000000000000000000000000000000000000000000707070707070707070707070707070707070707070707070707070707070707070707070707070700000000000000000000000000000000000000000000000000000000000000000000000000000000000000000000000000000000000000000000
310
00000000000000000000000000000000000000000000000000000000000000000000000000000000000000000000000000000000000000000000000000000000000000000000000000000000000000000000070707010101010101010101010101010101010101010101010101010101010101010101010101070000000000
310
00000000000000000000000000000000000000000000000000000000000000000000000000000000000000000000000000000000000000000000000000000000000000000000000000000000000000000000000000000000000000000000000000000000000000000000000000000000000000000000000000000000000000
310
00000000000000000707070107070707070707010707010707070707000707070707070707070707070707000000010700000000000000000000000000000000000000000000000000000000000000000000000000000000000000000000000000000000000000000000000000000000000000000000000000000000000000
310
00000000000000000000000000000000000000000000000000000000000000000000000000000000000000000000000000000000000000000000000000070707010707070107070701070701070707070700070707070700070707000700070707000001070000000000000000000000000000000000000000000000000000
310
00000000000000000000000000000000000000000000000000000000000000000000000000000000000000000000000000000000000000000000000000000000000000000000000000000000000000000000000000000000000000000000000000000000000000000000000000000000000007070701070707070707070107
310
07010701010707070707070707070707070707010707070707010700000000000000000000000000000000000000000000000000000000000000000000000000000000000000000000000000000000000000000000000000000000000000000000000000000000000000000000000000000000000000000000000000000000
310
00000000000000000000000000000000000000000000000000000000000000000000000000000000070707010707070107070701070701070100070707070707070707070707070107070700070701070000000000000000000000000000000000000000000000000000000000000000000000000000000000000000000000
310
00000000000000000000000000000000000000000000000000000000000000000000000000000000000000000000000000000000000000000000000000000000000000000000000000000000000000000000000000000000000000000007070701070707070707070707070707010007070707070707070707070707010707
310
07070707010700000000000000000000000000000000000000000000000000000000000000000000000000000000000000000000000000000000000000000000000000000000000000000000000000000000000000000000000000000000000000000000000000000000000000000000000000000000000000000000000000
310
00000000000000000000000000000000000000070707010707070707070707070707070700070707070700070707070707070707070707070701070000000000000000000000000000000000000000000000000000000000000000000000000000000000000000000000000000000000000000000000000000000000000000
310
00000000000000000000000000000000000000000000000000000000000000000000000000000000000000000000000000000000000000000000000000000000000000000000000007070701070107010707070107070107010101010101010101010101010707070707070707070107000000000000000000000000000000
310
00000000000000000000000000000000000000000000000000000000000000000000000000000000000000000000000000000000000000000000000000000000000000000000000000000000000000000000000000000000000000000000000000000000000000000000000000000000000000000000000000000000000707
310
07010701070107070701070701070100000000000000000000000000000000000000000001070000000000000000000000000000000000000000000000000000000000000000000000000000000000000000000000000000000000000000000000000000000000000000000000000000000000000000000000000000000000
310
00000000000000000000000000000000000000000000000000000000000000000000000000000000000000000000000000000007070701070107010707070107070107010000000000000000000000000000000000000000000107000000000000000000000000000000000000000000000000000000000000000000000000
310
00000000000000000000000000000000000000000000000000000000000000000000000000000000000000000000000000000000000000000000000000000000000000000000000000000000000000000000000000000000000000000000000000000000000000000707070101010101010101010101010101010101010101
310
01010101010101010101010101010101070000000000000000000000000000000000000000000000000000000000000000000000000000000000000000000000000000000000000000000000000000000000000000000000000000000000000000000000000000000000000000000000000000000000000000000000000000
310
00000000000000000000000000000000000000000000000000000000000007070701000000000000000000000000000000000000000000000000000000000000000000000107000000000000000000000000000000000000000000000000000000000000000000000000000000000000000000000000000000000000000000
310
00000000000000000000000000000000000000000000000000000000000000000000000000000000000000000000000000000000000000000000000000000000000000000000000000000000000000000000000707070100000000000000000000000000000000000000000000000000000000000000000000010700000000
310
00000000000000000000000000000000000000000000000000000000000000000000000000000000000000000000000000000000000000000000000000000000000000000000000000000000000000000000000000000000000000000000000000000000000000000000000000000000000000000000000000000000000000
310
00000000000000000007070701000000000000000000000000000000000000000000000000000000000000000000000107000000000000000000000000000000000000000000000000000000000000000000000000000000000000000000000000000000000000000000000000000000000000000000000000000000000000
310
00000000000000000000000000000000000000000000000000000000000000000000000000000000000000000000000000000000000000000000000000000707070100000000000000000000000000000000000000000000000000000000000000000000010700000000000000000000000000000000000000000000000000
310
00000000000000000000000000000000000000000000000000000000000000000000000000000000000000000000000000000000000000000000000000000000000000000000000000000000000000000000000000000000000000000000000000000000000000000000000000000000000000070707010000000000000000
310
00000000000000000000000000000000000000000000000000000107000000000000000000000000000000000000000000000000000000000000000000000000000000000000000000000000000000000000000000000000000000000000000000000000000000000000000000000000000000000000000000000000000000
310
00000000000000000000000000000000000000000000000000000000000000000000000000000000000707070100000000000000000000000000000000000000000000000000000000000000000000010700000000000000000000000000000000000000000000000000000000000000000000000000000000000000000000
310
00000000000000000000000000000000000000000000000000000000000000000000000000000000000000000000000000000000000000000000000000000000000000000000000000000000000000000000000000000000000000000000070707010000000000000000000000000000000000000000000000000000000000
310
00000000000107000000000000000000000000000000000000000000000000000000000000000000000000000000000000000000000000000000000000000000000000000000000000000000000000000000000000000000000000000000000000000000000000000000000000000000000000000000000000000000000000
310
00000000000000000000000000000000000000000701070100000000000000000000000000000000000000000000000000000000000000000000010700000000000000000000000000000000000000000000000000000000000000000000000000000000000000000000000000000000000000000000000000000000000000
310
00000000000000000000000000000000000000000000000000000000000000000000000000000000000000000000000000000000000000000000000000000000000000000000000000070707010000000000000000000000000000000000000000000000000000000000000000000001070000000000000000000000000000
310
00000000000000000000000000000000000000000000000000000000000000000000000000000000000000000000000000000000000000070000000000000000000000000000000000000000000000000000000000000000000000000000000000000000000000000000000000000000000000000000000000000000000007
310
07070100000000000000000000000000000000000000000000000000000000000000000000010700000000000000000000000000000000000000000000000000000000000000000000000000000000000000000000000000000000000000000000000000000000000000000707070000000000000000000000000000000000
310
00000000000000000000000000000000000000000000000000000000000000000000000000000000000000000000000000000000070707010000000000000000000000000000000000000000000000000000000000000000000001070000000000000000000000000000000000000000000000000000000000000000000000
310
00000000000000000000000000000000000000000000000000000000000000000007000007070000000000000000000000000000000000000000000000000000000000000000000000000000000000000000000000000000000000000000000000000000000000000007070701000000000000000000000000000000000000
310
00000000000000000000000000000000010700000000000000000000000000000000000000000000000000000000000000000000000000000000000000000000000000000000000000000000000000000000000007070700000007070000000000000000000000000000000000000000000000000000000000000000000000
310
00000000000000000000000000000000000000000000000000000000000000070707010000000000000000000000000000000000000000000000000000000000000000000001070000000000000000000000000000000000000000000000000000000000000007000000000000000000000000000000000000000000000000
310
00000000000000000000070707000000070707000000000000000000000000000000000000000000000000000000000000000000000000000000000000000000000000000000000000000000000000000000000007010701000000000000000000000000000000000000000000000000000000000000000000000107000000
310
00000000000000000000000000000000000000000000000000000000070707000000000000000000000000000000000000000000000000000000000000070707070700000007070700000000000000000000000000000000000000000000000000000000000000000000000000000000000000000000000000000000000000
310
00000000000000000000070707010000000000000000000000000000000000000000000000000000000000000000000001070000000000000000000000000000000000000000000000000000000000000007070700000000000000000000000000000000000000000000000000000000000707070707070700070707070700
310
00000000000000000000000000000000000000000000000000000000000000000000000000000000000000000000000000000000000000000000000000000007070701000000000000000000000000000000000000000000000000000000000000000000000107000000000000000000000000000000000000000000000000
310
00000000000000000134010101010000000000000000000000000000000000000000000000000000000007070707070707070007000000000000000000000000000000000000000000000000000001010101010100000000000000000000000000000000000000000000000000000000000000000707070100000000000000
310
00000000000000000000000000000000000000000000000000000001070000000000000000000000000000000000000000000000000000000101010101070707070101010101000000000000000000000000000000000000000000000000000007070700000000000707000000000000000000000000000000000000000000
310
00000101000000000000010101010101000000000000000000000000000000000000000000000000000007070701000000000000000000000000000000000000000000000000000000000000000000000107000000000000000000000000000000000000000000000000000101010707070700010101070707070101070100
310
00000000000000000000000000000000000000000000070707070707070000070000000000000000000000000000000000000000010101000000000000000000000000000001010000000000000000000000000000000000000000000000000700000100000000000000000000000000000000000000000000000000000000
310
00000000000001070000000000000000000000000000000000000000000000010107070701010101010100000000010107070700010100000000000000000000000000000000000000000007070707000000070707000000000000000000000000000000000000010100000000000000000101010000000000000000010100
310
00000000000000000000000000000000000000000007000001000000000000000000000000000000000000000000000000000000000000000000000107000000000000000000000000000000000000000000010107070001010000000000010100000000000007070707000100000000000000000000000000000000000000
310
00010100010000000000000000000000000000000000000000000000010000000000000000000001010100000000000000000000010100000000000000000000000000000000000000000701010100000000000000000000000000000000000000000000000000000000000000000000010700000000000000000000000000
310
00000000000001010107000101000000000000000101000000000000070007070701010000000000000000000000000000000000000007070707000000000000000000000000000000000000000000000100000000000096969696969696969696969696000000000000000100000000000000000000000000000000000000
310
07010101000000000000000000000000000000000000000000000000000000000000000000000107000000000000000000000000000000000000010007070101000000000000010101010101000000000007070700010701010000000000000000000000000000000000000707070700000000000000000000000000000000
310
00000000010100000000009696000000000000000000000000969696000000000000010000000000000000000000000000000000000701010100000000000000000000000000000000000000000000000000000000000000000000010700000000000000000000000000000000000107070101000000000000010100000000
310
00000101010107000700000001070701000000000000000000000000000000000007070001000000000000000000000000000000000000000100000000079696000000000000000000000000000000000096960000000000010000000000000000000000000000000000070101010000000000000000000000000000000000
310
00000000000000000000000000000000000107000000000000000000000000000000000107010100000000000001010000000000000000000000000707000000000000010701000000000000000000000000000000000707000100000000000000000000000000000000000001000001009607000000000000000000000000
310
00000000000000000096960100000001000000000000000000000000000000000707070100000000000000000000000000000000000000000000000000000000000000000000010700000000000000000000000000000000070101010101000001010000000000000000000000000000070701070000010101010701000000
310
00000000000000000000000007070001000000000000000000000000000000000707000001019600070700000000000000000000000000000000000000000001960100000100000000000000000000000000000000070707010000000000000000000000000000000000000000000000000000000000000000000001070000
310
00000000000000000000000000010701000101010001000000000000000000000000000000070700070701000101010001070100000000000000000000000000000707000100000000000000000000000000000000010700000196010100070000000000000000000000000000000000000000000196010100000100000000
310
00000000000000000000000707070100000000000000000000000000000000000000000000000000000000000000000000010700000000000000000000000000000107010100000000010000000000000000000000000000000007070007000001000000000007010000000000000000000000000000070700010000000000
310
00000000000000000000000100070701960100000007000000000000000000000000000000000000000000019600000000010000000000000000000000000000070107010000000000000000000000000000000000000000000000000000000000000000000001070000000000000000000000000001000701000000000100
310
00000000000000000007070100000007070007000000000100000000010701000000000000000000000000000707070700000000000000000000000000000001000000000700000000000007000000000000000000000000000000000000000000009600000000010000000000000000000000000007070701000000000000
310
00000000000000000000000000000000000000000000000000000000010700000000000000000000000000010701000000000100000000000000000007070000070707070707070000000000000100000000070100000000000000000000000000070700070000000000000000000000000000000100000096000700000000
310
00000700000000000101010000000000000000000000000096000000000100000000000000000000000000070101010000000000000000000000000000000000000000000000000000000000000000000001070000000000000000000000000001070100000001000000000000000007070000000101000007070707000000
310
00000001000000000107010000000000000000000000000101070100000000000000000000000000000100000000960000070700000000070000000000010101000000000000000000000000000096000000000100000000000000000000000007010101000000000000000000000000000000000000000000000000000000
310
00000000000000010700000000000000000000000001070100000001000000000000000707000000000001010000070707070700000000000001000000000701010000000000000000000000010707010000000000000000000000000000010000009600000000000700000000070000969696969696960000000000000000
310
00000000009600000001000000000000000000000000070101010000000000000000000000000000000000000000000000000000000000000000000001070000000000000000000000000107010000000100000000000007010000000000010101010007070007070000000000000100000000010701000000000000000000
310
00000707070700000000000000000000000000010000009600000000000000070000000007960000000100000096960000000000000000000000960000000100000000000000000000000007010101000000000000000000000000000000000000000000000000000000000000000000000107000000000000000000000000
310
01070100000100000000000000070000000000010101010107070707000007000000000000010000000007010100000000000000000000070701010000000000000000000000000001000000960000000000000000070700960700000000010101000000960000000000000000000096960000000100000000000000000000
310
00070101010000000000000000000000000000000000000000000000000000000000000000000001070000000000000000000000000107010000010000000000000700000000010101000000010707070700000701000000000001000000000107010000000000000000000001010101000000000000000000000000000100
310
00960000000000000000000000070000070101010000000100009696000000000000000000009600000001000000000000000000000007010101000000000000000000000000000000000000000000000000000000000000000000000107000000000000000000000001010700000001000000000000070000000101010000
310
00000707070707000000070000000000000100000001070100000000000000000000010101010000000000000000000000000001000096000000000000000000009607070001070000000000000100009600000000000000000000960000000100000000000000000000000707070100000000000000000000000000000000
310
00000000000000000000000000000000000001070000000000000000000000010107000000010000000000070100000101000000000000070700070701000001070000000000010000000107010000000000000000000001010101000000000000000000000000000100009600000000000000000000070700070700070000
310
00000000010096000000000000000000009600000000010000000000000000000007070701000000000000000000000000000000000000000000000000000000000000000000000107000000000000000000000001070100000100000000000007000000010100000000000007070707010100000007000000000001000000
310
01070100000000000000000000010101010000000000000000000000000001000096000000000000000000009600070700070700000000000001000096000000000000000000009600000001000000000000000000000701070100000000000000000000000000000000000000000000000000000000000000000000010700
310
00000000000000000000010701010001000000000000070000010101000000000007070700000101000000070000000000010000010107010000000000000000000001010101000000000000000000000000010000019601000000000000000096000001000707070700000000000100009600000000000000000007070100
310
00010000000000000000000007070701000000000000000000000000000000000000000000000000000000000000000000000107000000000000000000000001070101010100000000000007000001010100000000070700000000010100000007000000000001000101010701000000000000000000000101010100000000
310
00000000000000000100010196010000000000000000960000010000000707070000000000010096960000000000000000010707000001000000000000000000000707070101010101010101010101010101000000000000000000000000000000000000000000010700000000000000000000000107010101010000000000
310
00070000010101000007070700000000000101000000070000000000010001010107010000000000000000000001010101000000000000000000000000010000019601000000000000000096000000010000000007070700000001000096000000000000000001960700000100000000000000000000070707010000000000
310
00000000000000010000000000000000000000000000000000000000000107000000000000000000000001070100000001000000000007000000010107070007070000000000010100000007000000000001000000010701000000000000000000000101010100000000000000000000000001000000960000000000000000
310
00009600000100000000000707070700010796000000000000000000009600070701000000000000000000000707070100000000000000000000000001000000000000000000000000000000000000000000010700000000000000000000000107010000000100000000000701000001070707070700000000000001010000
310
01070000000000010000000107010000000000000000000007010101070000000000000000000000010000009600000000000000000000960100010000000000000707070707070700000000000000000096000000010707000000000000000000070101010101010101010101010101010101010101010101010101010101
310
01010101010101010107000000000000000000000001070100000001000000000007010107070707070707000000000101010101010107000000000001000000010701000000000000000000000707010707000000000000000000000001000000009600000000000000000196010000010000000000070001070107070700
310
00000000000000960000000100000700000000000000000707070707070707070707070707070707070707070707070707070707070707070707070707070700000000000000000000000101070000000100000000000007070101070707070700000001010100010101070000000000000100000101070100000000000000
310
00000007070707070700000000000000000000000100000096000000000000000001019600000001000000010107000007960101070700000000000096000000010000000707000000000000000000000000000000000000000000000000000000000000000000000000000000000000000000000000000000000000000000
310
01010700000000010000000007070700070707010700010101010100000000070000000000000100000001070100000000000000000000000707010107000000000000000000000000010000000096000000000000000001019600000001010100000007009607070000000707000000009600000001000000070707000000
310
00000000000000000000000000000000000000000000000000000000000000000000000000000000000000000000000000000000000100070100000001000000070000070707000707070101010000000000000107000000000000010000000107010000000000000000000000070707010000000000000000000000000000
310
01000000960000000000000000000000960000000000000000000700000007000000000707000096000000010000000007000000000000000000000000000000000000000000000000000000000000000000000000000000000000000000000000000000000000000000000107010000000100070700000707070707000700
310
00000000000000000107000000000000010000000001070100000000000000000000000707070700000000000000000000000000000100000096000000000000000000000000960000000000000096070000000007000000000007070000000001000000000000000000000000000000000000000000000000000000000000
310
00000000000000000000000000000000000000000000000000000000000000000001000701000000070000000700070007070707000000000000000107070000000000000001000000010701010000000000000000000000070707070000000000000000000000000000010000009600000000000000000000000000969696
310
96969696000007000000000707000000009607070701000000000000000000000000000000000000000000000000000000000000000000000000000000000000000000000000000000000000000000000000000000000001070100070700010007000700000701070707070000000707070000000000000000010000000001
310
07010000000000000000000000000707070700000000000000000000000000000001000000960000000000000000000000000000000000000000000007000000000007009696000000000707000000000000000000000000000000000000000000000000000000000000000000000000000000000000000000000000000000
310
00000000000000000000000000000707070000000007000700000700070700010107070700000000000000000000000100000001070101000000000000000000000000070707070000000000000000000000000000000100000000960000000000000000000000000000000000000000000700000000000007960000000001
310
00000707000000000000000000000000000000000000000000000000000000000000000000000000000000000000000000000000000000000000000000000000000000070701000000070001070007000007070000000000000000000000000000000001000000010107010000000000000000000000000007070001000000
310
00000000000000000000000000010000009601000000000000000000000000000000000000000000070000000707960707000700010000000007070000000000000000000000000000000000000000000000000000000000000000000000000000000000000000000000000000000000000000000000070700010701000701
310
01070107070007070000000000000000000000000000000101010101000107010000000000000000000000000000070700010000000000000000000000000000000001000000019696000000000000000000000000000000000000000000070000070701000007070100000000000000070700000000000000000000000000
310
00000000000000000000000000000000000000000000000000000000000000000000000000000000000000070000000101070701010700000701000707000000000000000000000000000001000001010101070100000000000000000000000000000007070001000000000000000000000000000000000001000001019601
310
00000000000000000000000000000000000000000007079601070700070701000000000000000707070700000000000000000000000000000000000000000000000000000000000000000000000000000000000000000000000000000000070700000000000707000107000007000007070000000000000000000000000001
310
01000000000001070001000000000000000000000000000000070700010000000000000000000000000000000000000100000101960000000000000000000000000000000000000000000707960101070000010707000000000000000707070000000000000000000000000000000000000000000000000000000000000000
310
00000000000000000000000000000000000000070000000000000700010707010000070000070701010000000000000101010101000000000001010107010000000000000000000000000000000007070001000000000000000000000000000000000000000100000000969696000000000000000000000000000000000096
310
96070000000007010000000700000000000000000000000000000000000000000000000000000000000000000000000000000000000000000000000000000000000000000000070700000000000007000000070701010700070700070000010101010101000000000000000001010101070100000000000000000000000000
310
00000000070707010000000000000000000000000000000000000001000000000000969600000000000000000000000000009696000000070000010007070000000700000000000000000000000000000000000000000000000000000000000000000000000000000000000000000000000000000000000000000700000000
310
00000007000000000701070701000707070000000000000100000000000000000101010101070100000000000000000000000000000000000707070707000000000000000000000000000000000000000001000000000000009696000000000101010000000096960000000000070100000000070000000707000000000000
310
00000000000000000000000000000000000000000000000000000000000000000000000000000000000000000000070707000000000000070000000007000000070701070707000000000000010100000000000101010101070700000000000000000000000000000000000707070707070700000000000000000000000000
310
00000000000000000101000000000000009696969696969696969696000000000000010700000000000007000000000700000000000000000000000000000000000000000000000000000000000000000000000000000000000000000000000000000707070700000000000700000000070000000700010707070701010000
310
00000101010101010101010707070000000000000000000000000000000000000000070707070707000000000000000000000000000000000000000000000001010000000000000000000101010000000000000000010100000700000000000707000000000700000000000000000000000000000000000000000000000000
310
00000000000000000000000000000000000000000000000000070000000000000700000000070000000700000007010707010101010101010100010101070707010000000000000000000000000000000000000000000000070707070700000000000000000000000000000000000000000000000000010100000000000000
310
00010000000000000101010000000000070000000007070700000007070700000000000000000000000000000000000000000000000000000000000000000000000000000000000000000000000000000000000707000000000700000000070000070000070007070707070707070707070701010000000000000000000000
310
00000000000000000000000007070707070707000000000000000000000000000000000000000000000000000000010101010101000000000000010101000000000000000000070000000007070000000707070700000000000000000000000000000000000000000000000000000000000000000000000000000000000000
310
00000000000000000700000000000700000000070000000700070000000000010107340101000000000000000000000000000000000000000000000000000000000707070707000700000000000000000000000000000000000000000000000000000000000000000001010101010100000000000000000000000007070000
310
00000000000000000707070000000000000000000000000000000000000000000000000000000000000000000000000000000000000000000000000007070700000007000000000700000007000007000000000000000707000000000000000000000000000000000000000000000000000000000000010100070100070100
310
00000100000001000000000000000000000000000000000000000000000000000000000000000000000000000000000000070700000000000000000000000707000000000000000000000000000000000000000000000000000000000000000000000000000000000000000000000000070707070000000707000000070000
310
00070007000000000000000707070000000000000000000000000000000000000000000000000000000000000101010701010701010000010101000100000000000000000000000000000000000000000000000000000000000000000000000000000000000007070700000000000000000000000000000000000000000000
310
00000000000000000000000000000000000000000000000000000000000000000000000000000000000000000707000000070000000707000707000000000000070000000000000000000000000000000000000000000000000000000000000001010101070707070101000101000001010000000000000000000000000000
310
00000000000000000000000000000000000000000000000000000000000707070000000000000000000000000000000000000000000000000000000000000000000000000000000000000000000000000000000000000000000000000000000007070700000707070007070700070700000000000000000000000000000000
310
00000000000000000000000000000000000000000000000000000707070700000000000000000000000000000000000000000000000000000000000000000000000000000000000000000000000000000000000700000000000000000000000000000000000000000000000000000000000000000000000000000000000000
310
00000000000000000000000000000000000000000007070700000007070000070700070707000000000000000000000000000000000000000000000000000000000000000000000000000000000000000707070000000000000000000000000000000000000000000000000000000000000000000000000000000000000000
310
00000000000000000000000000000000000000000000000000000000000000000000000000000000000000000000000000000000000000000000000000000000000000000000000000000000000000070707000707070007070000000000000000000000000000000000000000000000000000000000000000000000000000
310
00000000000000000000000000000000000000000000000000000000000000000000000000000000000000000000000000000000000000000000000000000000000000000000000000000000000000000000000000000000000000000000000000000000000000000000000000000000000000000000000000000000000000
310
00000000000000000007070007070700000000000000000000000000000000000000000000000000000000000000000000000000000000000000000000000000000000000000000000000000000000000000000000000000000000000000000000000000000000000000000000000000000000000000000000000000000000
310
00000000000000000000000000000000000000000000000000000000000000000000000000000000000000000000000000000000000000000000000000070707000707000000000000000000000000000000000000000000000000000000000000000000000000000000000000000000000000000000000000000000000000
310
00000000000000000000000000000000000000000000000000000000000000000000000000000000000000000000000000000000000000000000000000000000000000000000000000000000000000000000000000000000000000000000000000000000000000000000000000000000000000000000000000000000000000
310
000000000000000000000000000000000000000000000000000000000000000000000000000000000000000000000000000000000000000000000000000000000000000000000000000000000000000000000000000000000000000000000000000000000000000000000000
  0
ENDSEC
  0
EOF
